<?xml version="1.0" standalone="no"?>
<!DOCTYPE svg PUBLIC "-//W3C//DTD SVG 1.1//EN" "http://www.w3.org/Graphics/SVG/1.1/DTD/svg11.dtd" >
<svg>
<metadata>
Created by FontForge 20110222 at Tue Feb  3 03:55:37 2015
 By deploy user
Copyright (c) 2009 by Hannes von Doehren. All rights reserved.
</metadata>
<defs>
<font id="BrandonGrotesque-Medium" horiz-adv-x="490" >
  <font-face 
    font-family="Brandon Grotesque Medium"
    font-weight="420"
    font-stretch="normal"
    units-per-em="1000"
    panose-1="2 11 6 3 2 2 3 6 2 2"
    ascent="700"
    descent="-300"
    x-height="400"
    cap-height="700"
    bbox="-140 -379.261 1070.67 1034.56"
    underline-thickness="50"
    underline-position="-50"
    unicode-range="U+0020-FB02"
  />
<missing-glyph horiz-adv-x="599" 
d="M50 30v640q0 30 30 30h439q30 0 30 -30v-640q0 -30 -30 -30h-439q-30 0 -30 30zM262 314q0 -12 14 -12h36q15 0 15 13v26q0 16 16.5 32t36 28.5t36 36.5t16.5 53q0 48 -35.5 79.5t-89.5 31.5q-24 0 -46.5 -6.5t-37 -15t-25.5 -17.5t-16 -15l-5 -7q-8 -12 0 -18l22 -22
q9 -6 17 0q1 1 7.5 7t9.5 9t11.5 8.5t15.5 8.5t18 5.5t22 2.5q29 0 45 -15t16 -37q0 -21 -15.5 -39t-34 -30t-34 -32.5t-15.5 -45.5v-29zM245 156q0 -20 14.5 -34t33.5 -14q20 0 34.5 14t14.5 34t-14.5 34t-34.5 14q-19 0 -33.5 -14t-14.5 -34z" />
    <glyph glyph-name="fi" unicode="fi" horiz-adv-x="544" 
d="M96 19v298h-47q-8 0 -13.5 5.5t-5.5 13.5v45q0 19 19 19h47v124q0 86 51.5 136t128.5 50t150 -45q6 -4 7.5 -11.5t-2.5 -13.5l-25 -45q-8 -15 -26 -5q-58 32 -104 32q-34 0 -58.5 -25t-24.5 -73v-124h267q8 0 13.5 -6t5.5 -13v-362q0 -7 -5.5 -13t-13.5 -6h-57
q-7 0 -13 6t-6 13v298h-191v-298q0 -19 -28 -19h-50q-7 0 -13 6t-6 13z" />
    <glyph glyph-name="fl" unicode="fl" horiz-adv-x="552" 
d="M97 19v299h-49q-8 0 -13.5 5.5t-5.5 13.5v44q0 19 19 19h49v124q0 88 51.5 137t127.5 49q38 0 72 -13.5t50 -26.5l15 -14l9 27q8 17 22 17h24q8 0 13.5 -6t5.5 -13v-662q0 -7 -5.5 -13t-13.5 -6h-57q-7 0 -13 6t-6 13v544q-6 8 -15 17.5t-36.5 24t-56.5 14.5
q-37 0 -64 -23.5t-27 -71.5v-124h100q19 0 19 -19v-44q0 -8 -5.5 -13.5t-13.5 -5.5h-100v-299q0 -7 -5.5 -13t-13.5 -6h-59q-7 0 -12.5 5.5t-5.5 13.5z" />
    <glyph glyph-name="f_f" unicode="ff" horiz-adv-x="621" 
d="M96 19v298h-48q-8 0 -13.5 5.5t-5.5 13.5v45q0 19 19 19h48v101q0 97 56 148t140 51q78 0 134 -43q47 53 126 53q69 0 114 -40q12 -10 4 -23l-25 -45q-8 -15 -25 -3q-35 24 -66 24q-34 0 -54.5 -25t-20.5 -74v-124h108q19 0 19 -19v-45q0 -8 -5.5 -13.5t-13.5 -5.5h-108
v-298q0 -7 -5.5 -13t-13.5 -6h-59q-7 0 -13 6t-6 13v298h-189v-298q0 -7 -5.5 -13t-13.5 -6h-59q-7 0 -13 6t-6 13zM193 400h189v124q0 29 6 53q-12 13 -38 24.5t-55 11.5q-43 0 -72.5 -28t-29.5 -84v-101z" />
    <glyph glyph-name="f_f_i" unicode="ffi" horiz-adv-x="830" 
d="M96 19v298h-48q-8 0 -13.5 5.5t-5.5 13.5v45q0 19 19 19h48v101q0 90 53 143t143 56q72 0 134 -43q47 53 133 53q80 0 153 -45q6 -4 7.5 -11.5t-2.5 -13.5l-26 -47q-8 -11 -26 -3q-51 32 -103 32q-35 0 -59 -25t-24 -74v-123h267q8 0 13.5 -6t5.5 -13v-362q0 -7 -5.5 -13
t-13.5 -6h-57q-8 0 -13.5 5.5t-5.5 13.5v298h-191v-298q0 -7 -5.5 -13t-13.5 -6h-59q-7 0 -13 6t-6 13v298h-189v-298q0 -7 -5.5 -13t-13.5 -6h-59q-7 0 -13 6t-6 13zM193 400h189v124q0 26 5 53q-11 13 -37 24.5t-55 11.5q-44 0 -73 -28t-29 -84v-101z" />
    <glyph glyph-name="f_f_l" unicode="ffl" horiz-adv-x="838" 
d="M96 19v298h-48q-8 0 -13.5 5.5t-5.5 13.5v45q0 19 19 19h48v101q0 97 56 148t140 51q78 0 134 -43q47 53 138 53q37 0 70.5 -13.5t49.5 -26.5l15 -14l9 27q6 17 22 17h24q8 0 13.5 -6t5.5 -13v-662q0 -7 -5.5 -13t-13.5 -6h-57q-7 0 -13 6t-6 13v544q-6 8 -15 17.5
t-36.5 24t-56.5 14.5q-37 0 -64 -23.5t-27 -71.5v-124h100q19 0 19 -19v-44q0 -8 -5.5 -13.5t-13.5 -5.5h-100v-299q0 -7 -5.5 -13t-13.5 -6h-59q-7 0 -13 6t-6 13v298h-189v-298q0 -7 -5.5 -13t-13.5 -6h-59q-7 0 -13 6t-6 13zM193 400h189v124q0 29 6 53q-12 13 -38 24.5
t-55 11.5q-43 0 -72.5 -28t-29.5 -84v-101z" />
    <glyph glyph-name="f_f_h" unicode="ffh" horiz-adv-x="1121" 
d="M96 19v298h-48q-8 0 -13.5 5.5t-5.5 13.5v45q0 19 19 19h48v90q0 103 54 156.5t142 53.5q78 0 134 -43q47 53 138 53q37 0 70.5 -13.5t49.5 -26.5l15 -14l9 27q6 17 22 17h24q8 0 13.5 -6t5.5 -13q0 -53 0.5 -157.5t0.5 -156.5q61 43 120 43q167 0 167 -207v-184
q0 -7 -5.5 -13t-13.5 -6h-57q-7 0 -13 6t-6 13v201q0 48 -22.5 74.5t-61.5 26.5q-41 0 -72 -22t-36 -41v-24v-215q0 -19 -20 -19h-57q-7 0 -13 6t-6 13v544q-6 8 -15 17.5t-36.5 24t-56.5 14.5q-39 0 -65 -25t-26 -77v-117h100q19 0 19 -19v-44q0 -8 -5.5 -13.5t-13.5 -5.5
h-100v-299q0 -7 -5.5 -13t-13.5 -6h-59q-7 0 -13 6t-6 13v298h-189v-298q0 -7 -5.5 -13t-13.5 -6h-59q-7 0 -13 6t-6 13zM193 400h189v124q0 29 6 53q-12 13 -38 24.5t-55 11.5q-43 0 -72.5 -28t-29.5 -84v-101z" />
    <glyph glyph-name="f_k" unicode="fk" horiz-adv-x="794" 
d="M97 19v299h-49q-8 0 -13.5 5.5t-5.5 13.5v44q0 19 19 19h49v124q0 88 51.5 137t127.5 49q38 0 72 -13.5t50 -26.5l15 -14l9 27q6 17 22 17h24q8 0 13.5 -6t5.5 -13v-433l157 140q12 12 24 12h71q12 0 15 -10.5t-4 -16.5l-167 -151l197 -196q7 -7 3.5 -16.5t-15.5 -9.5
h-82q-10 0 -18 8l-181 186v-175q0 -7 -5.5 -13t-13.5 -6h-57q-7 0 -13 6t-6 13v544q-6 8 -15 17.5t-36.5 24t-56.5 14.5q-37 0 -64 -23.5t-27 -71.5v-124h100q19 0 19 -19v-44q0 -8 -5.5 -13.5t-13.5 -5.5h-100v-299q0 -7 -5.5 -13t-13.5 -6h-59q-7 0 -12.5 5.5t-5.5 13.5z
" />
    <glyph glyph-name="f_j" unicode="fj" horiz-adv-x="544" 
d="M96 19v298h-47q-8 0 -13.5 5.5t-5.5 13.5v45q0 19 19 19h47v124q0 86 51.5 136t128.5 50t150 -45q6 -4 7.5 -11.5t-2.5 -13.5l-25 -45q-8 -15 -26 -5q-58 32 -104 32q-34 0 -58.5 -25t-24.5 -73v-124h267q8 0 13.5 -6t5.5 -13v-505q0 -90 -47.5 -138t-122.5 -48
q-72 0 -114 40q-12 10 -4 23l25 45q8 14 25 3q36 -25 66 -25q36 0 56 25t20 75v441h-190v-298q0 -7 -5.5 -13t-13.5 -6h-59q-7 0 -13 6t-6 13z" />
    <glyph glyph-name="f_f_j" unicode="ffj" horiz-adv-x="830" 
d="M96 19v298h-48q-8 0 -13.5 5.5t-5.5 13.5v45q0 19 19 19h48v98q0 97 55 149.5t141 52.5q72 0 134 -43q47 53 133 53q77 0 153 -45q6 -4 7.5 -11.5t-2.5 -13.5l-26 -47q-8 -11 -26 -3q-51 32 -103 32q-83 0 -83 -122v-100h267q8 0 13.5 -6t5.5 -13v-498q0 -47 -21.5 -75
t-56.5 -34q-47 -78 -147 -64q-30 2 -50 16.5t-13 26.5l25 45q8 14 25 3q36 -25 66 -25q35 0 55.5 25.5t20.5 74.5v441h-190v-298q0 -7 -5.5 -13t-13.5 -6h-59q-7 0 -13 6t-6 13v298h-189v-298q0 -7 -5.5 -13t-13.5 -6h-59q-7 0 -13 6t-6 13zM193 400h189v109q0 41 5 68
q-11 13 -37 24.5t-55 11.5q-44 0 -73 -28t-29 -84v-101z" />
    <glyph glyph-name="f_b" unicode="fb" horiz-adv-x="817" 
d="M97 19v299h-49q-8 0 -13.5 5.5t-5.5 13.5v44q0 19 19 19h49v106q0 24 1 36q6 78 55 123t123 45q38 0 72 -13.5t50 -26.5l15 -14l9 27q6 17 22 17h24q8 0 13.5 -6t5.5 -13v-294q52 23 96 23q84 0 141 -61t57 -149q0 -87 -54.5 -148.5t-132.5 -61.5q-36 0 -67.5 14
t-45.5 28l-14 14q-1 -2 -2.5 -9t-2.5 -10t-3 -8.5t-4 -7.5t-5 -5.5t-6.5 -4.5t-8.5 -1h-24q-7 0 -13 6t-6 13v544q-6 8 -15 17.5t-36.5 24t-56.5 14.5q-37 0 -64 -23.5t-27 -71.5v-18v-106h100q19 0 19 -19v-44q0 -8 -5.5 -13.5t-13.5 -5.5h-100v-299q0 -7 -5.5 -13
t-13.5 -6h-59q-7 0 -12.5 5.5t-5.5 13.5zM486 146q3 -17 29.5 -44t66.5 -27q47 0 76.5 36.5t29.5 88.5q0 51 -32.5 86t-81.5 35q-24 0 -46 -5.5t-32 -11.5l-10 -6v-152z" />
    <glyph glyph-name="f_f_k" unicode="ffk" horiz-adv-x="1080" 
d="M96 19v298h-48q-8 0 -13.5 5.5t-5.5 13.5v45q0 19 19 19h48v101q0 97 56 148t140 51q78 0 134 -43q47 53 137 53q37 0 71 -13.5t50 -26.5l15 -14l10 29q4 15 19 15h26q8 0 13.5 -6t5.5 -13v-433l157 140q12 12 24 12h71q12 0 15 -10.5t-4 -16.5l-167 -151l197 -196
q7 -7 3.5 -16.5t-15.5 -9.5h-82q-10 0 -18 8l-181 186v-175q0 -7 -5.5 -13t-13.5 -6h-57q-7 0 -13 6t-6 13v544q-6 8 -15 17.5t-36.5 24t-56.5 14.5q-37 0 -64 -23.5t-27 -71.5v-124h100q19 0 19 -19v-44q0 -8 -5.5 -13.5t-13.5 -5.5h-100v-299q0 -7 -5.5 -13t-13.5 -6h-59
q-7 0 -13 6t-6 13v298h-189v-298q0 -7 -5.5 -13t-13.5 -6h-59q-7 0 -13 6t-6 13zM193 400h189v124q0 29 6 53q-12 13 -38 24.5t-55 11.5q-43 0 -72.5 -28t-29.5 -84v-101z" />
    <glyph glyph-name="f_h" unicode="fh" horiz-adv-x="834" 
d="M97 19v299h-49q-8 0 -13.5 5.5t-5.5 13.5v44q0 19 19 19h49v106q0 24 1 36q6 78 55.5 123t123.5 45q37 0 71 -13.5t50 -26.5l15 -14l9 27q6 17 22 17h24q8 0 13.5 -6t5.5 -13q0 -53 0.5 -157.5t0.5 -156.5q61 43 120 43q86 0 126.5 -55.5t40.5 -151.5v-184q0 -7 -5.5 -13
t-13.5 -6h-57q-7 0 -13 6t-6 13v201q0 48 -22.5 74.5t-61.5 26.5q-41 0 -72 -22t-36 -41v-19v-220q0 -19 -20 -19h-57q-7 0 -13 6t-6 13v544q-6 8 -15 17.5t-36.5 24t-56.5 14.5q-37 0 -64 -23.5t-27 -71.5v-18v-106h100q19 0 19 -19v-44q0 -8 -5.5 -13.5t-13.5 -5.5h-100
v-299q0 -7 -5.5 -13t-13.5 -6h-59q-7 0 -12.5 5.5t-5.5 13.5z" />
    <glyph glyph-name="f_f_b" unicode="ffb" horiz-adv-x="1103" 
d="M96 19v298h-48q-8 0 -13.5 5.5t-5.5 13.5v45q0 19 19 19h48v100q0 94 55 147t141 53q78 0 134 -43q47 53 137 53q37 0 71 -13.5t50 -26.5l15 -14l9 27q6 17 22 17h24q8 0 13.5 -6t5.5 -13v-294q52 23 96 23q84 0 141 -61t57 -149q0 -87 -54.5 -148.5t-132.5 -61.5
q-36 0 -67.5 14t-45.5 28l-14 14q-1 -2 -2.5 -9t-2.5 -10t-3 -8.5t-4 -7.5t-5 -5.5t-6.5 -4.5t-8.5 -1h-24q-7 0 -13 6t-6 13v544q-6 8 -15 17.5t-36.5 24t-56.5 14.5q-37 0 -64 -23.5t-27 -71.5v-18v-106h100q19 0 19 -19v-44q0 -8 -5.5 -13.5t-13.5 -5.5h-100v-299
q0 -7 -5.5 -13t-13.5 -6h-59q-7 0 -13 6t-6 13v298h-189v-298q0 -7 -5.5 -13t-13.5 -6h-59q-7 0 -13 6t-6 13zM193 400h189v124q0 29 6 53q-12 13 -38 24.5t-55 11.5q-43 0 -72.5 -28t-29.5 -84v-101zM772 146q3 -17 29.5 -44t66.5 -27q47 0 76.5 36.5t29.5 88.5
q0 51 -32.5 86t-81.5 35q-24 0 -46 -5.5t-32 -11.5l-10 -6v-152z" />
    <glyph glyph-name=".notdef" horiz-adv-x="599" 
d="M50 30v640q0 30 30 30h439q30 0 30 -30v-640q0 -30 -30 -30h-439q-30 0 -30 30zM262 314q0 -12 14 -12h36q15 0 15 13v26q0 16 16.5 32t36 28.5t36 36.5t16.5 53q0 48 -35.5 79.5t-89.5 31.5q-24 0 -46.5 -6.5t-37 -15t-25.5 -17.5t-16 -15l-5 -7q-8 -12 0 -18l22 -22
q9 -6 17 0q1 1 7.5 7t9.5 9t11.5 8.5t15.5 8.5t18 5.5t22 2.5q29 0 45 -15t16 -37q0 -21 -15.5 -39t-34 -30t-34 -32.5t-15.5 -45.5v-29zM245 156q0 -20 14.5 -34t33.5 -14q20 0 34.5 14t14.5 34t-14.5 34t-34.5 14q-19 0 -33.5 -14t-14.5 -34z" />
    <glyph glyph-name=".null" horiz-adv-x="0" 
 />
    <glyph glyph-name="nonmarkingreturn" horiz-adv-x="333" 
 />
    <glyph glyph-name="space" unicode=" " horiz-adv-x="220" 
 />
    <glyph glyph-name="exclam" unicode="!" horiz-adv-x="294" 
d="M136 272q-7 0 -12.5 5t-6.5 11l-29 279v114q0 7 6 13t13 6h80q7 0 13 -6t6 -13v-112l-29 -281q-1 -6 -6.5 -11t-12.5 -5h-22zM77 59q0 29 20.5 49.5t48.5 20.5q29 0 49.5 -20.5t20.5 -49.5t-20.5 -49t-49.5 -20q-28 0 -48.5 20.5t-20.5 48.5z" />
    <glyph glyph-name="quotedbl" unicode="&#x22;" horiz-adv-x="324" 
d="M222 501q-8 0 -13.5 5.5t-5.5 13.5v161q0 7 5.5 13t13.5 6h57q10 0 15.5 -7.5t2.5 -17.5l-34 -159q-4 -15 -18 -15h-23zM61 501q-7 0 -13 5.5t-6 13.5v161q0 7 6 13t13 6h57q10 0 15.5 -7.5t2.5 -17.5l-34 -159q-4 -15 -18 -15h-23z" />
    <glyph glyph-name="numbersign" unicode="#" horiz-adv-x="540" 
d="M105 22l24 169h-70q-19 0 -19 17v14q0 18 19 18h77l24 167h-72q-8 0 -13.5 5t-5.5 12v14q0 7 5.5 12.5t13.5 5.5h78l32 228q1 6 6 11t12 5h11q8 0 13.5 -6.5t4.5 -15.5l-30 -222h154l31 228q1 6 6.5 11t12.5 5h9q9 0 14.5 -6.5t4.5 -15.5l-30 -222h67q8 0 13.5 -5
t5.5 -13v-14q0 -17 -18 -17h-74l-24 -167h68q19 0 19 -18v-14q0 -17 -18 -17h-76l-25 -175q-2 -16 -19 -16h-10q-9 0 -14.5 6.5t-4.5 15.5l25 169h-156l-24 -175q-2 -16 -19 -16h-9q-10 0 -15.5 6.5t-3.5 15.5zM184 240h156l22 167h-154z" />
    <glyph glyph-name="dollar" unicode="$" horiz-adv-x="522" 
d="M50 69q-16 16 -5 32l29 42q15 20 31 7q6 -6 21.5 -17.5t48.5 -28t63 -22.5q0 38 0.5 113t0.5 113q-89 35 -139 79t-55 120q-1 12 1 36q6 60 55 108.5t138 57.5v32q0 8 5.5 13.5t13.5 5.5h10q8 0 13.5 -5.5t5.5 -13.5v-33q87 -7 162 -57q19 -12 6 -34q-3 -4 -7.5 -11.5
t-8 -12.5t-8 -11t-8.5 -9t-8.5 -5.5t-9.5 -2t-10 3.5q-1 0 -8.5 5t-17.5 10.5t-23 12t-29 12.5t-30 9q0 -36 -0.5 -110t-0.5 -110q45 -19 76.5 -36.5t62.5 -43.5t47 -61t16 -78q0 -78 -56.5 -129.5t-146.5 -58.5v-104q0 -18 -21 -18q-26 0 -26 18v104q-114 9 -188 78z
M238 418v202q-47 -5 -71.5 -31.5t-24.5 -55.5q0 -69 96 -115zM286 78q42 5 69.5 31t27.5 61q0 66 -97 116v-208z" />
    <glyph glyph-name="percent" unicode="%" horiz-adv-x="668" 
d="M163 441q-56 0 -95.5 39.5t-39.5 95.5t39.5 95.5t95.5 39.5t95.5 -39.5t39.5 -95.5t-39.5 -95.5t-95.5 -39.5zM116 27l343 663q7 10 17 10h33q11 0 16.5 -8.5t0.5 -18.5l-345 -663q-5 -10 -17 -10h-31q-11 0 -16.5 8.5t-0.5 18.5zM163 512q26 0 44 18.5t18 45.5
q0 25 -18.5 43.5t-43.5 18.5q-26 0 -44.5 -18.5t-18.5 -43.5q0 -27 18.5 -45.5t44.5 -18.5zM351 124q0 56 39.5 95.5t95.5 39.5t95.5 -39.5t39.5 -95.5t-39.5 -95.5t-95.5 -39.5t-95.5 39.5t-39.5 95.5zM422 124q0 -26 18.5 -44.5t45.5 -18.5q25 0 43.5 18.5t18.5 44.5
q0 25 -18.5 43.5t-43.5 18.5q-27 0 -45.5 -18t-18.5 -44z" />
    <glyph glyph-name="ampersand" unicode="&#x26;" horiz-adv-x="679" 
d="M79 176q0 119 139 200v2l-23 25q-70 74 -69 145q0 63 48.5 112.5t134.5 49.5q80 0 129.5 -46t49.5 -113q0 -34 -14 -64.5t-40.5 -56.5t-41 -37.5t-39.5 -28.5l140 -140q33 64 38 144q1 30 28 24l41 -8q15 -3 17.5 -14t-0.5 -17q-11 -102 -61 -192l93 -90q11 -11 12 -19
t-14 -27l-26 -26q-22 -20 -43 3l-79 80q-81 -92 -218 -92q-92 0 -147 54t-55 132zM295 423q59 36 80 62q24 29 24 62q0 34 -26 60t-69 26q-41 0 -65 -24.5t-24 -61.5q-1 -27 13.5 -49.5t44.5 -52.5zM174 182q0 -47 33 -77.5t82 -30.5q89 0 150 72l-167 176q-98 -60 -98 -140
z" />
    <glyph glyph-name="quotesingle" unicode="'" horiz-adv-x="163" 
d="M61 501q-7 0 -13 5.5t-6 13.5v161q0 7 6 13t13 6h57q10 0 15.5 -7.5t2.5 -17.5l-34 -159q-4 -15 -18 -15h-23z" />
    <glyph glyph-name="parenleft" unicode="(" horiz-adv-x="341" 
d="M302 -2q14 -4 11 -18l-2 -46q-1 -13 -19 -13q-47 3 -86.5 22.5t-76.5 62t-58 121.5t-21 188q0 88 14.5 157t37.5 111.5t55.5 71t65 40t69.5 13.5q17 2 19 -13l2 -46q1 -7 -2.5 -12t-8.5 -6q-82 -18 -118.5 -97t-36.5 -219q0 -141 36.5 -219.5t118.5 -97.5z" />
    <glyph glyph-name="parenright" unicode=")" horiz-adv-x="341" 
d="M28 -19q-2 15 11 17q82 19 119 98t37 219t-37 219t-119 97q-13 2 -11 18l3 46q0 15 18 13q37 -2 69.5 -13.5t65 -40t55.5 -71t37.5 -111.5t14.5 -157q0 -109 -21 -188t-58 -121.5t-76.5 -62t-86.5 -22.5q-18 0 -18 13z" />
    <glyph glyph-name="asterisk" unicode="*" horiz-adv-x="338" 
d="M158 392q-8 0 -13.5 6t-5.5 13l2 85l-70 -49q-6 -4 -14 -2.5t-12 7.5l-12 19q-10 15 5 27l79 48l-80 49q-14 11 -5 26q8 14 13 19q4 6 11.5 7.5t13.5 -2.5l71 -49l-2 85q0 7 5.5 13t13.5 6h22q8 0 13.5 -6t5.5 -13l-2 -85l70 51q15 9 26 -6l12 -19q9 -17 -5 -26l-80 -50
l80 -50q16 -10 6 -26l-13 -19q-9 -16 -26 -6l-70 50l2 -84q0 -7 -5.5 -13t-13.5 -6h-22z" />
    <glyph glyph-name="plus" unicode="+" horiz-adv-x="583" 
d="M252 153v153h-154q-8 0 -13.5 6t-5.5 13v42q0 7 5.5 13t13.5 6h154v155q0 7 5.5 12.5t13.5 5.5h42q8 0 13.5 -5.5t5.5 -12.5v-155h154q7 0 12.5 -5.5t5.5 -13.5v-42q0 -8 -5.5 -13.5t-12.5 -5.5h-154v-153q0 -7 -5.5 -12.5t-13.5 -5.5h-42q-8 0 -13.5 5.5t-5.5 12.5z" />
    <glyph glyph-name="comma" unicode="," horiz-adv-x="244" 
d="M45 59q0 29 21 49.5t52 20.5q33 0 58 -26t25 -85q0 -68 -31.5 -120.5t-67.5 -79.5q-14 -12 -24 0l-15 15q-12 12 5 25q71 65 71 136q-1 0 -4.5 -1t-9 -2t-11.5 -1q-28 0 -48.5 20.5t-20.5 48.5z" />
    <glyph glyph-name="hyphen" unicode="-" horiz-adv-x="390" 
d="M87 206q-8 0 -13.5 5t-5.5 13v43q0 19 19 19h216q19 0 19 -19v-43q0 -8 -5.5 -13t-13.5 -5h-216z" />
    <glyph glyph-name="period" unicode="." horiz-adv-x="229" 
d="M45 59q0 29 20 49.5t49 20.5t49.5 -20.5t20.5 -49.5t-20.5 -49t-49.5 -20q-28 0 -48.5 20t-20.5 49z" />
    <glyph glyph-name="slash" unicode="/" horiz-adv-x="335" 
d="M34 25l196 662q4 13 18 13h47q11 0 16 -7.5t2 -17.5l-195 -662q-4 -13 -18 -13h-48q-10 0 -15.5 7.5t-2.5 17.5z" />
    <glyph glyph-name="zero" unicode="0" horiz-adv-x="631" 
d="M316 -10q-118 0 -183 92.5t-65 257.5t65 257.5t183 92.5q117 0 182 -92.5t65 -257.5t-65 -257.5t-182 -92.5zM316 81q70 0 108 67.5t38 191.5q0 123 -38 190.5t-108 67.5t-108.5 -67.5t-38.5 -190.5q0 -124 38 -191.5t109 -67.5z" />
    <glyph glyph-name="one" unicode="1" horiz-adv-x="343" 
d="M146 19v508l-80 -38q-17 -8 -22 7l-12 35q-5 12 3 20l142 129h49q7 0 12.5 -5.5t5.5 -13.5v-642q0 -8 -5.5 -13.5t-12.5 -5.5h-61q-8 0 -13.5 5.5t-5.5 13.5z" />
    <glyph glyph-name="two" unicode="2" horiz-adv-x="518" 
d="M36 19v26q13 14 252 299q76 85 76 146q0 44 -31 76.5t-92 32.5q-65 0 -127 -67q-14 -14 -27 0l-34 34q-13 13 -1 26q3 4 9 10.5t25 23.5t40 30t54 23.5t66 10.5q103 0 161 -56.5t58 -139.5q0 -52 -23 -93.5t-73 -101.5q-88 -106 -182 -213h255q8 0 13.5 -6t5.5 -13v-48
q0 -7 -5.5 -13t-13.5 -6h-387q-8 0 -13.5 5.5t-5.5 13.5z" />
    <glyph glyph-name="three" unicode="3" horiz-adv-x="529" 
d="M42 79q-11 13 1 24l39 36q15 12 27 -2q5 -7 21 -20t49 -27.5t66 -14.5q51 0 88 30t37 78q0 49 -41 83t-117 34h-56q-19 0 -19 21v43q0 21 20 21h56q68 0 104.5 30t36.5 77q0 48 -34 78.5t-80 30.5q-65 0 -116 -56q-11 -15 -26 -2l-37 33q-14 12 0 26q3 4 9 9.5t25 21
t39 27t50.5 21t61.5 9.5q89 0 149 -50.5t60 -132.5q0 -53 -32 -96t-71 -61v-3q44 -19 82.5 -63.5t38.5 -102.5q0 -83 -62 -137t-164 -54q-130 0 -205 89z" />
    <glyph glyph-name="four" unicode="4" horiz-adv-x="593" 
d="M35 149q-8 0 -13.5 5.5t-5.5 13.5v60l370 457q6 6 15 6h37q8 0 13.5 -5.5t5.5 -13.5v-442h81q8 0 13.5 -5t5.5 -13v-42q0 -8 -5.5 -13.5t-13.5 -5.5h-81l1 -132q0 -7 -6 -13t-13 -6h-59q-8 0 -13.5 6t-5.5 13v130h-326zM124 232h241v294z" />
    <glyph glyph-name="five" unicode="5" horiz-adv-x="530" 
d="M62 73q-17 19 -2 34q6 5 18 17t19 18q13 12 24 0q7 -8 22 -21t49 -28.5t68 -15.5q59 0 97.5 42.5t38.5 98.5q0 55 -36 91.5t-103 36.5h-153q-14 0 -22.5 11t-8.5 24v280q0 8 5.5 13.5t13.5 5.5h309q8 0 13.5 -5.5t5.5 -13.5v-49q0 -8 -5.5 -13.5t-13.5 -5.5h-238v-158
h101q109 0 169.5 -58t60.5 -158q0 -95 -68 -162t-169 -67q-126 0 -195 83z" />
    <glyph glyph-name="six" unicode="6" horiz-adv-x="541" 
d="M48 270q0 79 26.5 148.5t63 114t86 82.5t85 56t70.5 31q18 6 25 -12l17 -41q9 -21 -18 -29q-21 -7 -52.5 -24.5t-70.5 -45t-71 -68t-44 -83.5q59 37 133 37q84 0 146.5 -59t62.5 -158q0 -94 -66 -161.5t-157 -67.5q-115 0 -175.5 79t-60.5 201zM283 80q55 0 93.5 40.5
t38.5 97.5q0 56 -39 96t-94 40q-52 0 -91 -28t-46 -48q-7 -73 28 -135.5t110 -62.5z" />
    <glyph glyph-name="seven" unicode="7" horiz-adv-x="478" 
d="M71 19v11l270 562h-296q-7 0 -13 6t-6 13v50q0 7 6 13t13 6h409q8 0 13.5 -6t5.5 -13v-7l-294 -627q-7 -16 -14 -21.5t-25 -5.5h-46q-10 0 -16.5 5.5t-6.5 13.5z" />
    <glyph glyph-name="eight" unicode="8" horiz-adv-x="572" 
d="M55 182q0 57 40.5 103t80.5 64v3q-39 20 -71 61t-32 94q0 81 60.5 132t151.5 51q93 0 153.5 -50.5t60.5 -132.5q0 -52 -32 -93t-71 -61v-4q44 -20 82.5 -64.5t38.5 -102.5q0 -84 -63 -138t-170 -54q-103 0 -166 54.5t-63 137.5zM286 396q56 8 84 36.5t28 70.5
q0 46 -32.5 75.5t-82.5 29.5q-46 0 -77.5 -30t-31.5 -75q0 -90 112 -107zM159 180q0 -48 37.5 -78.5t88.5 -30.5q55 0 91.5 30t36.5 79q0 42 -34.5 76.5t-92.5 43.5q-58 -9 -92.5 -43.5t-34.5 -76.5z" />
    <glyph glyph-name="nine" unicode="9" horiz-adv-x="540" 
d="M119 37q-9 21 18 29q21 7 53 24.5t70.5 45t71 67.5t44.5 83q-65 -36 -133 -36q-85 0 -147.5 59t-62.5 158q0 94 66 161.5t158 67.5q114 0 174.5 -79t60.5 -202q0 -67 -17.5 -126t-48.5 -102.5t-64.5 -78t-74.5 -60t-69 -40t-57 -25.5q-18 -6 -25 12zM258 331q53 0 92 28
t45 48q5 45 -6.5 89t-46 77t-85.5 33q-54 0 -93 -41t-39 -97q0 -57 39 -97t94 -40z" />
    <glyph glyph-name="colon" unicode=":" horiz-adv-x="247" 
d="M124 281q-27 0 -46 19t-19 45q0 27 19 46t46 19t45.5 -19t18.5 -46q0 -26 -18.5 -45t-45.5 -19zM59 54q0 27 19 46t46 19t45.5 -19t18.5 -46q0 -26 -18.5 -45t-45.5 -19t-46 19t-19 45z" />
    <glyph glyph-name="semicolon" unicode=";" horiz-adv-x="253" 
d="M124 281q-27 0 -46 19t-19 45q0 27 19 46t46 19t45.5 -19t18.5 -46q0 -26 -18.5 -45t-45.5 -19zM61 52q0 26 18.5 44t45.5 18q30 0 52.5 -23t22.5 -76q0 -59 -27.5 -107t-59.5 -76q-13 -12 -24 -1l-14 15q-9 10 4 23q65 52 65 124q-6 -3 -21 -3q-25 0 -43.5 18t-18.5 44z
" />
    <glyph glyph-name="less" unicode="&#x3c;" horiz-adv-x="436" 
d="M31 210q-10 6 -10 17v5q0 11 10 17l343 212q10 6 19 1t9 -17v-53q0 -12 -10 -18l-238 -144l238 -139q10 -6 10 -17v-53q0 -12 -9 -17t-19 1z" />
    <glyph glyph-name="equal" unicode="=" horiz-adv-x="498" 
d="M93 344q-8 0 -13.5 5.5t-5.5 13.5v43q0 8 5.5 13.5t13.5 5.5h312q8 0 13.5 -5.5t5.5 -13.5v-43q0 -8 -5.5 -13.5t-13.5 -5.5h-312zM93 133q-8 0 -13.5 5.5t-5.5 13.5v44q0 8 5.5 13.5t13.5 5.5h312q8 0 13.5 -5.5t5.5 -13.5v-44q0 -8 -5.5 -13.5t-13.5 -5.5h-312z" />
    <glyph glyph-name="greater" unicode="&#x3e;" horiz-adv-x="436" 
d="M34 21v53q0 12 10 17l237 139l-237 144q-10 5 -10 18v53q0 12 9 17t19 -1l343 -212q10 -6 10 -17v-5q0 -11 -10 -17l-343 -205q-10 -6 -19 -1t-9 17z" />
    <glyph glyph-name="question" unicode="?" horiz-adv-x="454" 
d="M182 272q-8 0 -13.5 5.5t-5.5 13.5v42q0 37 22.5 66.5t50 47t50 44t22.5 56.5q0 32 -24 54.5t-66 22.5q-20 0 -37.5 -4t-31.5 -12.5t-22 -14.5t-19 -16.5t-13 -12.5q-12 -10 -24 0l-33 32q-12 10 0 26q3 4 8 9.5t22.5 21t37.5 27t53 21t69 9.5q79 0 131.5 -45t52.5 -116
q0 -35 -16 -64t-39 -48t-45.5 -35.5t-38.5 -35t-16 -37.5v-37q0 -20 -21 -20h-54zM139 59q0 29 20 49.5t49 20.5t49.5 -20.5t20.5 -49.5t-20.5 -49t-49.5 -20q-28 0 -48.5 20t-20.5 49z" />
    <glyph glyph-name="at" unicode="@" horiz-adv-x="983" 
d="M37 223q0 215 129 351t339 136q200 0 314.5 -118t114.5 -304q0 -53 -11.5 -103t-36 -95t-68.5 -72.5t-102 -27.5q-91 0 -117 78h-8q-17 -34 -50.5 -56t-77.5 -22q-77 0 -127.5 59.5t-50.5 151.5q0 94 51 151.5t130 57.5q13 0 25.5 -2t22 -5.5t19.5 -8.5t16 -9t13 -10
t10 -9l8 -8l4 -4q1 4 4.5 15.5t5 14t5.5 8t10 7t16 1.5h13q8 0 13.5 -6t5.5 -13v-198q0 -66 17 -90t50 -24q54 0 88.5 60.5t34.5 155.5q0 152 -89.5 248.5t-255.5 96.5q-173 0 -276 -109.5t-103 -297.5q0 -129 69 -226t184 -145q17 -8 10 -25l-18 -45q-7 -15 -21 -9
q-138 54 -224 174t-86 276zM372 204q-1 -58 27.5 -93t71.5 -35q46 0 69 26.5t24 70.5v92q-2 17 -27.5 40t-65.5 23q-43 0 -70.5 -33t-28.5 -91z" />
    <glyph glyph-name="A" unicode="A" horiz-adv-x="662" 
d="M20 0q-11 0 -16.5 8t-0.5 18l307 673q6 11 17 11h10q11 0 17 -11l305 -673q5 -10 -0.5 -18t-16.5 -8h-63q-16 0 -23 15l-62 137h-327q-10 -23 -30.5 -68.5t-30.5 -68.5q-6 -15 -23 -15h-63zM206 238h250l-123 274h-5z" />
    <glyph glyph-name="B" unicode="B" horiz-adv-x="622" 
d="M97 19v662q0 8 5.5 13.5t13.5 5.5h224q90 0 149 -53t59 -132q0 -53 -31 -94t-73 -65q51 -21 88 -61t37 -102q0 -84 -61.5 -138.5t-156.5 -54.5h-235q-8 0 -13.5 5.5t-5.5 13.5zM199 396h135q47 0 75 30.5t28 76.5t-28 74.5t-75 28.5h-135v-210zM198 92h152q46 0 77 31.5
t31 77.5q0 45 -36.5 75t-86.5 30h-137v-214z" />
    <glyph glyph-name="C" unicode="C" horiz-adv-x="696" 
d="M46 349q0 150 105.5 255.5t255.5 105.5q135 0 242 -93q15 -14 1 -28l-44 -45q-11 -14 -25 0q-77 67 -173 67q-106 0 -178.5 -77t-72.5 -183t73 -182.5t179 -76.5q86 0 172 66q13 10 24 1l46 -45q6 -6 5.5 -13.5t-6.5 -13.5q-100 -97 -243 -97q-150 0 -255.5 104.5
t-105.5 254.5z" />
    <glyph glyph-name="D" unicode="D" horiz-adv-x="743" 
d="M97 19v662q0 8 5.5 13.5t12.5 5.5h230q145 0 248 -102.5t103 -246.5q0 -145 -103 -248t-248 -103h-230q-7 0 -12.5 5.5t-5.5 13.5zM199 95h132q110 0 182 72.5t72 183.5q0 110 -72 182t-182 72h-132v-510z" />
    <glyph glyph-name="E" unicode="E" horiz-adv-x="589" 
d="M97 19v662q0 8 5.5 13.5t13.5 5.5h400q8 0 13.5 -5.5t5.5 -13.5v-56q0 -8 -5.5 -13.5t-13.5 -5.5h-316v-204h267q7 0 13 -6t6 -13v-56q0 -8 -5.5 -13.5t-13.5 -5.5h-267v-215h316q8 0 13.5 -5.5t5.5 -13.5v-55q0 -8 -5.5 -13.5t-13.5 -5.5h-400q-8 0 -13.5 5.5t-5.5 13.5
z" />
    <glyph glyph-name="F" unicode="F" horiz-adv-x="566" 
d="M97 19v662q0 8 5.5 13.5t13.5 5.5h400q8 0 13.5 -5.5t5.5 -13.5v-56q0 -8 -5.5 -13.5t-13.5 -5.5h-316v-231h267q7 0 13 -5.5t6 -13.5v-55q0 -7 -6 -13t-13 -6h-267v-263q0 -7 -6 -13t-13 -6h-65q-8 0 -13.5 5.5t-5.5 13.5z" />
    <glyph glyph-name="G" unicode="G" horiz-adv-x="722" 
d="M46 349q0 150 105.5 255.5t254.5 105.5q134 0 243 -93q15 -15 1 -28q-8 -8 -23 -23.5t-22 -23.5q-11 -12 -26 1q-78 68 -170 68q-105 0 -178 -77t-73 -183t73 -182.5t178 -76.5q17 0 33.5 1.5t30.5 4.5t26.5 6t23 7t17 6.5t12.5 5.5t7 3v112h-98q-8 0 -13.5 5t-5.5 13v58
q0 19 19 19h182q7 0 12.5 -5.5t5.5 -13.5q0 -40 0.5 -121t0.5 -121q0 -10 -8 -16q-12 -7 -33 -18t-86 -29.5t-129 -18.5q-150 0 -255 104.5t-105 254.5z" />
    <glyph glyph-name="H" unicode="H" horiz-adv-x="768" 
d="M97 19v662q0 7 5.5 13t13.5 6h66q8 0 13.5 -5.5t5.5 -13.5v-279h366v279q0 8 5.5 13.5t13.5 5.5h66q8 0 13.5 -6t5.5 -13v-662q0 -7 -5.5 -13t-13.5 -6h-66q-8 0 -13.5 5.5t-5.5 13.5v289h-366v-289q0 -8 -5.5 -13.5t-13.5 -5.5h-66q-8 0 -13.5 6t-5.5 13z" />
    <glyph glyph-name="I" unicode="I" horiz-adv-x="298" 
d="M97 19v662q0 7 5.5 13t13.5 6h66q8 0 13.5 -6t5.5 -13v-662q0 -7 -5.5 -13t-13.5 -6h-66q-8 0 -13.5 6t-5.5 13z" />
    <glyph glyph-name="J" unicode="J" horiz-adv-x="412" 
d="M-17 63q-8 13 2 25l36 39q17 15 32 -2q38 -43 82 -43q41 0 71 32t30 94v473q0 8 5.5 13.5t13.5 5.5h66q8 0 13.5 -5.5t5.5 -13.5v-472q0 -102 -57.5 -160.5t-147.5 -58.5q-93 0 -152 73z" />
    <glyph glyph-name="K" unicode="K" horiz-adv-x="636" 
d="M97 24v652q0 10 7 17t17 7h58q10 0 17 -7t7 -17v-277l282 291q8 10 19 10h75q14 0 19 -12.5t-5 -23.5l-289 -294l306 -337q7 -7 2 -20t-20 -13h-80q-13 0 -18 7l-291 328v-311q0 -10 -7 -17t-17 -7h-58q-10 0 -17 7t-7 17z" />
    <glyph glyph-name="L" unicode="L" horiz-adv-x="499" 
d="M97 19v662q0 8 5.5 13.5t13.5 5.5h66q8 0 13.5 -6t5.5 -13v-588h271q8 0 13.5 -5.5t5.5 -13.5v-55q0 -8 -5.5 -13.5t-13.5 -5.5h-356q-8 0 -13.5 5.5t-5.5 13.5z" />
    <glyph glyph-name="M" unicode="M" horiz-adv-x="869" 
d="M49 23l124 672q4 15 18 15h16q13 0 17 -11l209 -511h4l208 511q4 11 17 11h16q14 0 18 -15l123 -672q5 -23 -18 -23h-65q-15 0 -19 14l-74 447h-3l-180 -460q-4 -11 -17 -11h-18q-13 0 -17 11l-181 460h-4l-72 -447q-1 -5 -6.5 -9.5t-11.5 -4.5h-65q-22 0 -19 23z" />
    <glyph glyph-name="N" unicode="N" horiz-adv-x="775" 
d="M97 19v673q0 7 5.5 12.5t13.5 5.5h25l434 -502h1v473q0 8 5.5 13.5t13.5 5.5h64q7 0 13 -6t6 -13v-673q0 -7 -5.5 -12.5t-13.5 -5.5h-26l-434 516h-1v-487q0 -8 -5.5 -13.5t-13.5 -5.5h-63q-8 0 -13.5 6t-5.5 13z" />
    <glyph glyph-name="O" unicode="O" horiz-adv-x="811" 
d="M46 349q0 150 104.5 255.5t254.5 105.5t255 -105.5t105 -255.5t-105 -254.5t-255 -104.5t-254.5 104.5t-104.5 254.5zM146 349q0 -107 76 -183t183 -76t183.5 76t76.5 183t-76.5 184t-183.5 77q-106 0 -182.5 -77t-76.5 -184z" />
    <glyph glyph-name="P" unicode="P" horiz-adv-x="594" 
d="M97 19v662q0 8 5.5 13.5t13.5 5.5h228q92 0 158 -65t66 -156q0 -93 -65.5 -159t-157.5 -66h-145v-235q0 -7 -6 -13t-13 -6h-65q-8 0 -13.5 5.5t-5.5 13.5zM200 352h138q52 0 89.5 37t37.5 91q0 51 -37.5 85.5t-89.5 34.5h-138v-248z" />
    <glyph glyph-name="Q" unicode="Q" horiz-adv-x="812" 
d="M46 349q0 150 104.5 255.5t254.5 105.5t255 -105.5t105 -255.5q0 -105 -56 -192t-148 -133l121 -192q7 -10 1.5 -20t-17.5 -10h-78q-10 0 -16 10l-108 182q-25 -4 -59 -4q-150 0 -254.5 104.5t-104.5 254.5zM146 349q0 -107 76 -183t183 -76t183.5 76t76.5 183t-76.5 184
t-183.5 77q-106 0 -182.5 -77t-76.5 -184z" />
    <glyph glyph-name="R" unicode="R" horiz-adv-x="665" 
d="M97 19v662q0 8 5.5 13.5t13.5 5.5h272q90 0 154 -62.5t64 -151.5q0 -68 -40.5 -122t-107.5 -81l137 -254q6 -10 0.5 -19.5t-17.5 -9.5h-78q-12 0 -16 9l-133 265h-151v-255q0 -7 -6 -13t-13 -6h-65q-8 0 -13.5 5.5t-5.5 13.5zM202 360h178q49 0 85.5 36.5t36.5 87.5
q0 48 -36.5 83.5t-85.5 35.5h-178v-243z" />
    <glyph glyph-name="S" unicode="S" horiz-adv-x="537" 
d="M58 69q-16 14 -6 32q4 7 13 21t13 20q16 23 34 8q83 -69 160 -69q51 0 82 27t31 66q0 43 -36.5 75t-114.5 64q-88 37 -135 84.5t-47 127.5q0 31 12.5 62t37 59.5t68.5 46t101 17.5q101 0 185 -59q20 -13 6 -34q-4 -6 -12.5 -19t-12.5 -19q-14 -23 -35 -10q-88 50 -135 50
q-57 0 -85 -28t-28 -62q0 -41 31 -70t96 -56q104 -42 159.5 -91.5t55.5 -132.5q0 -79 -63.5 -134t-159.5 -55q-55 0 -106.5 18t-73 33t-35.5 28z" />
    <glyph glyph-name="T" unicode="T" 
d="M193 19v587h-163q-8 0 -13.5 5.5t-5.5 13.5v56q0 8 5.5 13.5t13.5 5.5h430q8 0 13.5 -5.5t5.5 -13.5v-56q0 -8 -5.5 -13.5t-13.5 -5.5h-163v-587q0 -7 -5.5 -13t-13.5 -6h-66q-8 0 -13.5 6t-5.5 13z" />
    <glyph glyph-name="U" unicode="U" horiz-adv-x="720" 
d="M88 261v420q0 7 6 13t13 6h67q8 0 13.5 -5.5t5.5 -13.5v-413q0 -77 45.5 -127.5t120.5 -50.5q76 0 122 50t46 126v415q0 8 5.5 13.5t13.5 5.5h67q7 0 13 -6t6 -13v-420q0 -115 -77.5 -193t-195.5 -78q-117 0 -194 78t-77 193z" />
    <glyph glyph-name="V" unicode="V" horiz-adv-x="664" 
d="M309 1l-305 673q-5 10 0.5 18t16.5 8h71q13 0 17 -11l220 -495h6l220 495q4 11 17 11h71q11 0 16.5 -8t0.5 -18l-307 -673q-5 -11 -17 -11h-10q-12 0 -17 11z" />
    <glyph glyph-name="W" unicode="W" horiz-adv-x="900" 
d="M222 4l-189 672q-3 10 2 17t16 7h67q14 0 18 -14l121 -459h4l163 472q4 11 17 11h18q13 0 17 -11l165 -472h4l119 459q4 14 18 14h67q11 0 16 -7t2 -17l-189 -672q-4 -14 -18 -14h-16q-13 0 -17 11l-176 497h-5l-173 -497q-4 -11 -17 -11h-16q-14 0 -18 14z" />
    <glyph glyph-name="X" unicode="X" horiz-adv-x="608" 
d="M35 28l206 331l-198 313q-6 10 -1 19t18 9h85q12 0 17 -9l141 -239h1l143 239q5 9 16 9h85q13 0 18 -9t-1 -19l-198 -313l205 -331q6 -10 1 -19t-18 -9h-77q-12 0 -17 9l-157 256h-2l-155 -256q-7 -9 -17 -9h-77q-13 0 -18.5 9t0.5 19z" />
    <glyph glyph-name="Y" unicode="Y" horiz-adv-x="574" 
d="M234 19v318l-234 334q-6 10 -1 19.5t17 9.5h74q9 0 16 -9l181 -255l181 255q7 9 16 9h75q12 0 17 -9.5t-1 -19.5l-237 -333v-319q0 -7 -6 -13t-13 -6h-66q-8 0 -13.5 5.5t-5.5 13.5z" />
    <glyph glyph-name="Z" unicode="Z" horiz-adv-x="535" 
d="M27 19v18l330 563v4h-282q-7 0 -13 6t-6 13v58q0 7 6 13t13 6h411q8 0 13.5 -6t5.5 -13v-13l-331 -572v-1h292q8 0 13.5 -5.5t5.5 -13.5v-57q0 -8 -5.5 -13.5t-13.5 -5.5h-420q-8 0 -13.5 6t-5.5 13z" />
    <glyph glyph-name="bracketleft" unicode="[" horiz-adv-x="337" 
d="M163 -219h134q8 0 13.5 -5.5t5.5 -12.5v-44q0 -7 -6 -13t-13 -6h-206q-7 0 -13 6t-6 13v962q0 7 6 13t13 6h206q7 0 13 -6t6 -13v-44q0 -8 -5.5 -13.5t-13.5 -5.5h-134v-837z" />
    <glyph glyph-name="backslash" unicode="\" horiz-adv-x="342" 
d="M217 13l-195 662q-3 10 2 17.5t16 7.5h54q14 0 18 -13l196 -662q3 -10 -2.5 -17.5t-15.5 -7.5h-55q-14 0 -18 13z" />
    <glyph glyph-name="bracketright" unicode="]" horiz-adv-x="337" 
d="M40 -219h133v837h-133q-8 0 -13.5 5.5t-5.5 13.5v44q0 7 5.5 13t13.5 6h206q8 0 13.5 -6t5.5 -13v-962q0 -7 -5.5 -13t-13.5 -6h-206q-8 0 -13.5 6t-5.5 13v44q0 7 5.5 12.5t13.5 5.5z" />
    <glyph glyph-name="asciicircum" unicode="^" horiz-adv-x="524" 
d="M56 391q-12 0 -17 9t1 19l205 285q6 10 17 10h5q11 0 17 -10l199 -285q6 -10 1 -19t-17 -9h-51q-10 0 -17 10l-136 190l-138 -190q-6 -10 -18 -10h-51z" />
    <glyph glyph-name="underscore" unicode="_" horiz-adv-x="399" 
d="M21 -29q0 19 19 19h319q19 0 19 -19v-28q0 -8 -5.5 -13t-13.5 -5h-319q-8 0 -13.5 5t-5.5 13v28z" />
    <glyph glyph-name="grave" unicode="`" horiz-adv-x="302" 
d="M235 543l-168 72q-14 7 -6 24l23 44q3 6 12.5 6.5t13.5 -3.5l157 -91q12 -6 6 -19l-14 -29q-6 -13 -24 -4z" />
    <glyph glyph-name="a" unicode="a" horiz-adv-x="423" 
d="M36 124q0 56 42.5 92.5t117.5 36.5q19 0 38.5 -3t29.5 -6l11 -3q1 49 -12 68.5t-50 19.5q-49 0 -112 -18q-17 -4 -22 16l-8 37q-4 17 13 23q54 23 138 23q46 0 75.5 -13t43 -39.5t17.5 -54.5t4 -71v-213q0 -7 -6 -13t-13 -6h-28q-11 0 -17 14l-10 27q-53 -51 -123 -51
q-57 0 -93 36.5t-36 97.5zM123 125q0 -28 17 -46t44 -18q28 0 54 16.5t36 33.5v64q-24 16 -70 16q-36 0 -58.5 -18t-22.5 -48z" />
    <glyph glyph-name="b" unicode="b" 
d="M65 19v662q0 7 5.5 13t13.5 6h58q8 0 13.5 -6t5.5 -13v-293l11 4q12 5 22 8.5t27.5 6.5t35.5 3q83 0 140 -61t57 -149q0 -87 -54 -148.5t-133 -61.5q-35 0 -67 14t-46 28l-14 14l-8 -29q-5 -17 -18 -17h-30q-8 0 -13.5 6t-5.5 13zM160 136q4 -10 13 -21.5t31.5 -25
t50.5 -13.5q47 0 76.5 36t29.5 88t-32 87.5t-82 35.5q-23 0 -45 -5.5t-32 -11.5l-10 -6v-164z" />
    <glyph glyph-name="c" unicode="c" horiz-adv-x="434" 
d="M35 199q0 87 63 149t147 62q88 0 145 -71q12 -16 -4 -28l-33 -30q-11 -10 -27 4q-34 38 -80 38q-49 0 -82.5 -36t-33.5 -87q0 -52 33 -88t82 -36q11 0 20 1t17.5 5t13.5 5.5t13 8t10 8t11 10.5l8 8q13 13 27 2l27 -22q17 -14 7 -28q-53 -84 -155 -84q-85 0 -147 60
t-62 149z" />
    <glyph glyph-name="d" unicode="d" 
d="M36 200q0 88 57 149t140 61q18 0 35.5 -3t27.5 -6.5t22 -8.5l11 -4v293q0 7 5.5 13t13.5 6h58q8 0 13.5 -6t5.5 -13v-662q0 -7 -5.5 -13t-13.5 -6h-30q-13 0 -18 17l-8 29q-5 -6 -15.5 -15.5t-43.5 -25t-68 -15.5q-79 0 -133 61.5t-54 148.5zM129 200q0 -52 29.5 -88
t76.5 -36q28 0 50.5 13.5t31.5 25t13 21.5v163q-35 24 -87 24q-50 0 -82 -35.5t-32 -87.5z" />
    <glyph glyph-name="e" unicode="e" horiz-adv-x="451" 
d="M36 200q0 87 56 148.5t144 61.5q78 0 131 -52.5t53 -132.5q0 -13 -2 -27q-2 -17 -18 -17h-272q2 -42 35 -74.5t80 -32.5q44 0 89 29q19 11 27 1l28 -38q12 -14 -2 -26q-58 -50 -148 -50q-89 0 -145 61t-56 149zM133 244h194q-2 36 -29 62.5t-63 26.5q-40 0 -68.5 -25.5
t-33.5 -63.5z" />
    <glyph glyph-name="f" unicode="f" horiz-adv-x="335" 
d="M96 19v298h-47q-8 0 -13.5 5.5t-5.5 13.5v45q0 19 19 19h47v124q0 90 47.5 138t122.5 48q69 0 114 -40q12 -10 4 -23l-25 -45q-8 -15 -25 -3q-35 24 -66 24q-34 0 -54.5 -25t-20.5 -74v-124h108q19 0 19 -19v-45q0 -8 -5.5 -13.5t-13.5 -5.5h-108v-298q0 -7 -5.5 -13
t-13.5 -6h-59q-7 0 -13 6t-6 13z" />
    <glyph glyph-name="g" unicode="g" horiz-adv-x="460" 
d="M25 24q0 22 7.5 41.5t18 32t20.5 22t17 14.5l8 4q-31 37 -31 97q0 72 48.5 123.5t123.5 51.5h175q19 0 19 -19v-25q0 -15 -11 -17l-55 -15q5 -4 12 -11t19 -35t12 -61q0 -66 -47.5 -114.5t-122.5 -48.5q-22 0 -42 4t-31.5 8t-13.5 4q-9 0 -25 -14t-16 -35q0 -18 13 -29.5
t35 -11.5h136q68 0 112.5 -35.5t44.5 -98.5q0 -69 -58.5 -117.5t-154.5 -48.5q-98 0 -148 41t-50 96q0 59 59 94v3q-25 7 -49.5 31.5t-24.5 68.5zM239 141q37 0 60.5 25.5t23.5 66.5t-23.5 66.5t-60.5 25.5q-38 0 -63 -26t-25 -66t25 -66t63 -26zM133 -157q0 -31 29 -51
t75 -20q47 0 80.5 22t33.5 57q0 11 -4.5 22.5t-22.5 23t-48 11.5q-59 0 -88 -2q-55 -18 -55 -63z" />
    <glyph glyph-name="h" unicode="h" horiz-adv-x="508" 
d="M65 19v662q0 7 5.5 13t13.5 6h58q8 0 13.5 -6t5.5 -13v-314q61 43 120 43q82 0 124.5 -52.5t42.5 -137.5v-201q0 -7 -6 -13t-13 -6h-56q-8 0 -13.5 5.5t-5.5 13.5v203q0 48 -23 74.5t-62 26.5q-40 0 -71.5 -22.5t-36.5 -40.5v-241q0 -19 -20 -19h-57q-8 0 -13.5 6
t-5.5 13z" />
    <glyph glyph-name="i" unicode="i" horiz-adv-x="225" 
d="M111 563q-24 0 -40.5 17t-16.5 41q0 25 16.5 42t40.5 17q25 0 42 -17t17 -42q0 -24 -17 -41t-42 -17zM65 19v362q0 7 5.5 13t13.5 6h57q7 0 13 -6t6 -13v-362q0 -7 -6 -13t-13 -6h-57q-8 0 -13.5 6t-5.5 13z" />
    <glyph glyph-name="j" unicode="j" horiz-adv-x="226" 
d="M112 563q-24 0 -40.5 17t-16.5 41q0 25 16.5 42t40.5 17q25 0 42 -17t17 -42q0 -24 -17 -41t-42 -17zM65 -124v505q0 8 5.5 13.5t13.5 5.5h58q8 0 13.5 -5.5t5.5 -13.5v-505q0 -90 -47.5 -138t-122.5 -48q-72 0 -114 40q-12 9 -4 23l25 45q8 14 25 3q36 -25 66 -25
q35 0 55.5 25.5t20.5 74.5z" />
    <glyph glyph-name="k" unicode="k" horiz-adv-x="467" 
d="M65 19v662q0 7 5.5 13t13.5 6h58q8 0 13.5 -6t5.5 -13v-433l156 140q14 12 25 12h70q12 0 15 -10.5t-4 -16.5l-166 -151l196 -196q7 -7 4 -16.5t-15 -9.5h-82q-12 0 -18 8l-181 186v-175q0 -7 -5.5 -13t-13.5 -6h-58q-8 0 -13.5 6t-5.5 13z" />
    <glyph glyph-name="l" unicode="l" horiz-adv-x="225" 
d="M65 19v662q0 7 5.5 13t13.5 6h57q7 0 13 -6t6 -13v-662q0 -7 -6 -13t-13 -6h-57q-8 0 -13.5 6t-5.5 13z" />
    <glyph glyph-name="m" unicode="m" horiz-adv-x="771" 
d="M65 19v362q0 7 5.5 13t13.5 6h28q12 0 17 -12l11 -34q56 56 132 56q84 0 129 -64q11 11 26 22.5t50 26.5t69 15q86 0 125.5 -52.5t39.5 -137.5v-201q0 -8 -5.5 -13.5t-13.5 -5.5h-56q-8 0 -13.5 5.5t-5.5 13.5v205q0 48 -21.5 73.5t-61.5 25.5q-14 0 -28 -3.5t-24 -8
t-20 -11t-15 -11t-11 -9.5l-5 -6q3 -14 3 -48v-207q0 -7 -6 -13t-13 -6h-53q-8 0 -13.5 5.5t-5.5 13.5v205q0 99 -85 99q-39 0 -66 -21.5t-33 -38.5v-244q0 -7 -5.5 -13t-13.5 -6h-56q-8 0 -13.5 6t-5.5 13z" />
    <glyph glyph-name="n" unicode="n" horiz-adv-x="508" 
d="M65 19v362q0 7 5.5 13t13.5 6h29q13 0 16 -12l12 -34q7 8 21.5 19t48.5 24t70 13q86 0 126.5 -52.5t40.5 -137.5v-201q0 -7 -6 -13t-13 -6h-57q-8 0 -13.5 5.5t-5.5 13.5v205q0 48 -22 73.5t-61 25.5q-41 0 -73 -22t-38 -38v-244q0 -19 -23 -19h-52q-8 0 -13.5 6t-5.5 13
z" />
    <glyph glyph-name="o" unicode="o" horiz-adv-x="474" 
d="M35 201q0 85 59 147t143 62t143 -62t59 -147q0 -87 -59 -149t-143 -62t-143 62t-59 149zM124 201q0 -52 33 -88.5t80 -36.5t80 36.5t33 88.5q0 50 -33 86t-80 36t-80 -36t-33 -86z" />
    <glyph glyph-name="p" unicode="p" 
d="M161 17v-298q0 -19 -21 -19h-56q-8 0 -13.5 6t-5.5 13v662q0 7 5.5 13t13.5 6h30q11 0 17 -13l10 -26q49 49 122 49q81 0 136 -62t55 -149q0 -88 -56.5 -148.5t-138.5 -60.5q-51 0 -98 27zM159 105q35 -29 88 -29q49 0 81.5 35.5t32.5 87.5t-30 88t-80 36
q-38 0 -62.5 -21t-29.5 -37v-160z" />
    <glyph glyph-name="q" unicode="q" 
d="M36 199q0 87 55 149t136 62q73 0 122 -49l10 25q5 14 19 14h28q8 0 13.5 -6t5.5 -13v-662q0 -7 -5.5 -13t-13.5 -6h-57q-20 0 -20 19v299l-7 -4q-8 -4 -16 -7.5t-19.5 -7.5t-26 -6.5t-29.5 -2.5q-82 0 -138.5 60.5t-56.5 148.5zM128 199q0 -52 32.5 -87.5t81.5 -35.5
q24 0 46 7t32 14l10 7v157q-6 17 -30.5 39.5t-61.5 22.5q-50 0 -80 -36t-30 -88z" />
    <glyph glyph-name="r" unicode="r" horiz-adv-x="336" 
d="M65 19v362q0 7 5.5 13t13.5 6h29q13 0 17 -14l11 -34q41 58 117 58q34 0 57.5 -9.5t15.5 -27.5l-24 -49q-7 -16 -24 -9q-14 7 -34 7q-26 0 -48 -12t-30 -21t-12 -16v-254q0 -19 -27 -19h-48q-8 0 -13.5 6t-5.5 13z" />
    <glyph glyph-name="s" unicode="s" horiz-adv-x="358" 
d="M47 31q-12 8 -6 21l21 39q8 15 25 5q44 -26 93 -26t49 34q0 19 -16.5 32t-60.5 33q-114 50 -114 131q0 43 35 76.5t102 33.5q70 0 118 -31q18 -12 8 -29l-18 -34q-9 -16 -26 -8q-44 21 -82 21q-45 0 -45 -30q0 -18 14.5 -28.5t49.5 -25.5q67 -29 100 -58t33 -80
q0 -48 -41.5 -82.5t-106.5 -34.5q-81 0 -132 41z" />
    <glyph glyph-name="t" unicode="t" horiz-adv-x="346" 
d="M91 109v208h-42q-8 0 -13.5 5.5t-5.5 13.5v45q0 19 19 19h42v111q0 7 5.5 13t13.5 6l57 1q7 0 12.5 -5.5t5.5 -13.5v-112h102q19 0 19 -19v-45q0 -8 -5.5 -13.5t-13.5 -5.5h-102v-198q0 -24 8 -32t24 -8q25 0 61 18q16 7 23 -9l18 -44q7 -16 -9 -24q-13 -8 -49.5 -19
t-67.5 -11q-56 0 -79 30.5t-23 88.5z" />
    <glyph glyph-name="u" unicode="u" horiz-adv-x="493" 
d="M59 179v202q0 7 5.5 13t13.5 6h57q7 0 13 -6t6 -13v-205q0 -48 21.5 -74t60.5 -26t67.5 24t31.5 42v239q0 19 22 19h52q7 0 13 -6t6 -13v-362q0 -7 -6 -13t-13 -6h-28q-13 0 -18 16l-10 29l-5 -5q-5 -4 -8.5 -7t-11 -9t-14.5 -10t-18 -9t-21.5 -8t-24.5 -5t-29 -2
q-85 0 -123.5 52t-38.5 137z" />
    <glyph glyph-name="v" unicode="v" horiz-adv-x="415" 
d="M188 0l-177 377q-5 10 -0.5 16.5t15.5 6.5h59q13 0 18 -11l104 -236h1l108 236q5 11 27 11h46q11 0 15.5 -6.5t-0.5 -16.5l-177 -377q-4 -10 -17 -10h-5q-13 0 -17 10z" />
    <glyph glyph-name="w" unicode="w" horiz-adv-x="613" 
d="M146 0l-119 377q-5 10 -0.5 16.5t14.5 6.5h54q15 0 18 -12l67 -221h1l107 233q4 10 17 10h6q13 0 17 -10l106 -234h1l66 222q5 12 31 12h39q11 0 15 -6.5t0 -16.5l-117 -377q-3 -10 -18 -10h-4q-13 0 -17 9l-123 267h-1l-122 -267q-4 -9 -16 -9h-5q-14 0 -17 10z" />
    <glyph glyph-name="x" unicode="x" horiz-adv-x="430" 
d="M29 26l130 178l-126 169q-7 10 -3 18.5t15 8.5h65q16 0 24 -11l80 -115h1l82 115q8 11 23 11h66q13 0 16.5 -8t-4.5 -18l-126 -169l127 -179q7 -10 3.5 -18t-15.5 -8h-63q-12 0 -21 12l-88 124h-1l-90 -128q-6 -8 -16 -8h-67q-12 0 -15.5 8t3.5 18z" />
    <glyph glyph-name="y" unicode="y" horiz-adv-x="463" 
d="M185 14l-174 360q-5 10 0.5 18t16.5 8h66q12 0 17 -11l124 -266h1l120 266q5 11 21 11h57q12 0 17 -8t0 -18l-306 -662q-6 -12 -17 -12h-60q-11 0 -16.5 8.5t-0.5 18.5z" />
    <glyph glyph-name="z" unicode="z" horiz-adv-x="364" 
d="M32 19v10l170 285v1h-142q-7 0 -12.5 5.5t-5.5 13.5v47q0 8 5 13.5t13 5.5h258q11 0 17 -8.5t0 -18.5l-169 -288v-1h132q19 0 19 -19v-46q0 -8 -5.5 -13.5t-13.5 -5.5h-247q-7 0 -13 6t-6 13z" />
    <glyph glyph-name="braceleft" unicode="{" horiz-adv-x="394" 
d="M105 -54v142q0 30 -23 49.5t-46 23.5q-6 1 -10.5 6.5t-4.5 11.5v40q0 12 14 16q18 2 44 23t26 50v144q0 71 23.5 124t62 80t78 39.5t82.5 13.5q20 2 20 -17l2 -41q1 -6 -3.5 -11.5t-9.5 -6.5q-69 -12 -114 -59t-45 -122v-119q0 -32 -9.5 -58t-24.5 -41t-25.5 -22.5
t-21.5 -11.5v-3q81 -35 81 -131v-120q0 -75 44.5 -121.5t114.5 -58.5q15 -2 13 -18l-2 -41q0 -7 -6 -12.5t-14 -4.5q-43 1 -82.5 13.5t-78.5 39.5t-62 79.5t-23 123.5z" />
    <glyph glyph-name="bar" unicode="|" horiz-adv-x="189" 
d="M71 -282v1023q0 8 5.5 13.5t13.5 5.5h10q8 0 13 -5.5t5 -13.5v-1023q0 -7 -5.5 -12.5t-13.5 -5.5h-9q-8 0 -13.5 5.5t-5.5 12.5z" />
    <glyph glyph-name="braceright" unicode="}" horiz-adv-x="394" 
d="M193 -54v120q0 96 81 131v3q-11 4 -21.5 11.5t-25.5 22.5t-24.5 41t-9.5 58v119q0 75 -45 122t-114 59q-5 1 -9.5 6.5t-3.5 11.5l2 41q0 19 20 17q43 -1 82.5 -13.5t78 -39.5t62 -80t23.5 -124v-144q0 -29 26 -50t44 -23q14 -4 14 -16v-40q0 -6 -4.5 -11.5t-10.5 -6.5
q-23 -4 -46 -23.5t-23 -49.5v-142q0 -71 -23 -123.5t-62 -79.5t-78.5 -39.5t-82.5 -13.5q-8 -1 -14 4.5t-6 12.5l-2 41q-2 16 13 18q70 12 114.5 58.5t44.5 121.5z" />
    <glyph glyph-name="asciitilde" unicode="~" horiz-adv-x="544" 
d="M79 212q-6 6 -17 15t-17 14q-11 13 -2 24q3 4 7.5 10.5t19.5 23t31 29t39 23t45 10.5q13 0 26.5 -3.5t20.5 -5.5t22.5 -11.5t16.5 -10t18 -12.5q47 -33 73 -33q40 0 79 57q13 16 28 3l32 -29q13 -11 2 -24q-3 -4 -7.5 -10.5t-19.5 -22.5t-30.5 -28.5t-38.5 -23t-45 -10.5
q-21 0 -44 8.5t-30.5 13.5t-32.5 21q-2 2 -8 6t-9.5 6t-9 6t-10 6t-10.5 4t-11.5 3t-11.5 1q-42 0 -79 -57q-5 -7 -13 -8t-14 5z" />
    <glyph glyph-name="uni00A0" unicode="&#xa0;" horiz-adv-x="220" 
 />
    <glyph glyph-name="exclamdown" unicode="&#xa1;" horiz-adv-x="229" 
d="M115 271q-29 0 -49.5 20.5t-20.5 49.5t20.5 49t49.5 20q28 0 48.5 -20.5t20.5 -48.5q0 -29 -20.5 -49.5t-48.5 -20.5zM84 112q1 6 6.5 11t12.5 5h22q7 0 12.5 -5t6.5 -11l29 -279v-114q0 -7 -5.5 -13t-13.5 -6h-80q-8 0 -13.5 6t-5.5 13v112z" />
    <glyph glyph-name="cent" unicode="&#xa2;" horiz-adv-x="419" 
d="M152 6q-58 23 -93.5 75t-35.5 118q0 87 63 149t147 62q10 0 28 -2l11 41q5 18 23 13l10 -3q18 -4 13 -23l-11 -41q38 -17 71 -56q12 -16 -4 -28l-33 -30q-11 -10 -27 4q-12 13 -31 23l-62 -231h12q24 0 44 9t25.5 14t23.5 22q13 13 27 2l27 -22q17 -14 7 -28
q-53 -84 -155 -84q-18 0 -34 3l-26 -97q-1 -7 -8 -11t-15 -2l-9 3q-18 4 -14 22zM176 92l61 229h-3q-49 0 -82.5 -35t-33.5 -86q0 -73 58 -108z" />
    <glyph glyph-name="sterling" unicode="&#xa3;" horiz-adv-x="494" 
d="M74 19v18q63 119 38 255h-44q-7 0 -12.5 5.5t-5.5 13.5v10q0 8 5.5 13.5t12.5 5.5h32q-1 5 -10.5 38.5t-15 63t-5.5 59.5q0 95 60 152t150 57q88 0 169 -71q15 -11 2 -26l-35 -43q-13 -17 -28 -2q-6 6 -16.5 14.5t-39.5 23t-53 14.5q-48 0 -80 -32.5t-32 -84.5
q0 -38 18 -101l18 -62h140q8 0 13.5 -5.5t5.5 -13.5v-11q0 -8 -5.5 -13t-13.5 -5h-130q7 -34 3 -97t-21 -108h223q8 0 13 -5.5t5 -13.5v-49q0 -8 -5.5 -13.5t-12.5 -5.5h-324q-7 0 -13 6t-6 13z" />
    <glyph glyph-name="currency" unicode="&#xa4;" horiz-adv-x="464" 
d="M98 168l-30 30q-5 5 -5 13.5t5 13.5l45 44q-33 63 0 125l-44 45q-13 13 0 27l30 29q13 13 27 0l44 -44q63 35 125 0l44 45q12 12 27 -1l29 -30q13 -13 1 -26l-44 -44q34 -63 0 -127l44 -44q13 -13 0 -26l-30 -30q-14 -14 -26 -1l-45 45q-64 -34 -126 1l-44 -45
q-5 -5 -13.5 -5t-13.5 5zM233 269q26 0 44.5 18.5t18.5 44.5t-18.5 44.5t-44.5 18.5t-44.5 -18.5t-18.5 -44.5t18.5 -44.5t44.5 -18.5z" />
    <glyph glyph-name="yen" unicode="&#xa5;" horiz-adv-x="624" 
d="M138 121q-7 0 -12.5 5.5t-5.5 13.5v10q0 8 5.5 13.5t12.5 5.5h121v72h-121q-7 0 -12.5 5.5t-5.5 13.5v10q0 8 5.5 13.5t12.5 5.5h121v48l-235 334q-6 10 -1 19.5t17 9.5h75q9 0 16 -9l181 -255l181 255q7 9 16 9h75q12 0 17 -9.5t-1 -19.5l-238 -333v-49h119
q8 0 13.5 -5.5t5.5 -13.5v-11q0 -8 -5.5 -13t-13.5 -5h-119v-72h119q8 0 13.5 -5.5t5.5 -13.5v-11q0 -8 -5.5 -13t-13.5 -5h-119v-102q0 -7 -6 -13t-13 -6h-65q-8 0 -13.5 5.5t-5.5 13.5v102h-121z" />
    <glyph glyph-name="brokenbar" unicode="&#xa6;" horiz-adv-x="333" 
d="M162 392q-8 0 -13.5 5.5t-5.5 12.5v331q0 8 5.5 13.5t13.5 5.5h10q8 0 13 -5.5t5 -13.5v-331q0 -7 -5.5 -12.5t-13.5 -5.5h-9zM143 49q0 8 5.5 13.5t13.5 5.5h10q8 0 13 -5.5t5 -13.5v-331q0 -7 -5.5 -12.5t-13.5 -5.5h-9q-8 0 -13.5 5.5t-5.5 12.5v331z" />
    <glyph glyph-name="section" unicode="&#xa7;" horiz-adv-x="518" 
d="M68 -99q15 20 33 5l7 -5q6 -5 13.5 -10.5t19 -12.5t25 -14t28 -12.5t31 -9t32.5 -3.5q42 0 74 20.5t35 57.5q3 44 -33 77.5t-114 66.5q-178 74 -178 199q0 12 2 23.5t6 22t8.5 19t10.5 17t11 14.5t12 12.5t10.5 10t9 8t6.5 5.5l-6 5q-6 5 -9 8.5t-10 10.5t-12 13.5
t-11.5 16t-11 19t-8.5 20.5t-6 24t-2 26q0 67 55 121t159 54q44 0 88.5 -14t63.5 -25t29 -19q7 -4 9.5 -12t-2.5 -20l-28 -41q-12 -19 -33 -5q-80 48 -130 48q-54 0 -83 -25.5t-29 -56.5q0 -68 124 -118q50 -20 83 -37.5t65 -42t48 -56t16 -70.5q0 -12 -2 -23.5t-6.5 -22.5
t-9 -20t-11 -18t-11.5 -15.5t-12.5 -14l-11 -11l-9.5 -9.5l-6 -5q79 -67 79 -149q0 -76 -63 -127t-155 -51q-54 0 -104.5 18t-71 32.5t-34.5 27.5q-18 16 -5 34zM138 266q0 -15 4 -27.5t13.5 -23.5t19 -19t28.5 -18t32 -16.5t40 -19t43 -20.5q6 3 14.5 9t23 29t14.5 51
q0 39 -35.5 65.5t-119.5 61.5q-12 5 -29 11l-4 -3q-5 -3 -10 -7t-11 -11.5t-11 -16t-8.5 -20.5t-3.5 -25z" />
    <glyph glyph-name="dieresis" unicode="&#xa8;" horiz-adv-x="414" 
d="M316 567q-23 0 -39.5 16.5t-16.5 39.5q0 24 16.5 40.5t39.5 16.5q24 0 40.5 -16.5t16.5 -40.5q0 -23 -16.5 -39.5t-40.5 -16.5zM119 567q-23 0 -39.5 16.5t-16.5 39.5q0 24 16.5 40.5t39.5 16.5q24 0 40.5 -16.5t16.5 -40.5q0 -23 -16.5 -39.5t-40.5 -16.5z" />
    <glyph glyph-name="copyright" unicode="&#xa9;" horiz-adv-x="812" 
d="M47 350q0 149 105.5 254.5t253.5 105.5t254 -106t106 -254t-105.5 -253.5t-254.5 -105.5q-148 0 -253.5 105.5t-105.5 253.5zM116 350q0 -120 85 -205t205 -85q121 0 205.5 85t84.5 205q0 121 -84.5 205.5t-205.5 84.5q-120 0 -205 -84.5t-85 -205.5zM228 348
q0 78 55 133t132 55q67 0 115 -38q16 -14 2 -29l-26 -28q-9 -13 -26 -2q-29 20 -64 20q-45 0 -75 -32t-30 -76q0 -46 30 -77t75 -31q34 0 62 19q17 10 27 -2l28 -29q13 -14 -1 -28q-49 -42 -117 -42q-77 0 -132 55t-55 132z" />
    <glyph glyph-name="ordfeminine" unicode="&#xaa;" horiz-adv-x="311" 
d="M122 401q-41 0 -67.5 27.5t-26.5 71.5q0 42 31 68.5t86 26.5q14 0 28 -2.5t21 -4.5l8 -2q0 37 -8.5 51.5t-35.5 14.5q-22 0 -82 -15q-13 -3 -16 13l-5 25q-3 12 8 17q4 2 16.5 6t37 8t48.5 4q33 0 54 -9.5t31 -28.5t13.5 -40t3.5 -53v-156q0 -6 -4.5 -10t-9.5 -4h-22
q-9 0 -13 10q-1 3 -3.5 10t-3.5 11q-41 -39 -89 -39zM135 456q20 0 39 11.5t26 25.5v44q-16 12 -53 12q-24 0 -40 -13.5t-16 -34.5q0 -19 12.5 -32t31.5 -13z" />
    <glyph glyph-name="guillemotleft" unicode="&#xab;" horiz-adv-x="443" 
d="M216 194q-8 11 0 24l109 148q7 12 18 12h35q13 0 17 -9.5t-2 -21.5l-71 -139l68 -147q6 -12 1.5 -21t-16.5 -9h-40q-9 0 -15 8zM139 39l-104 155q-8 11 0 24l109 148q7 12 18 12h35q13 0 17 -9.5t-2 -21.5l-71 -139l68 -147q6 -12 1.5 -21t-16.5 -9h-40q-9 0 -15 8z" />
    <glyph glyph-name="logicalnot" unicode="&#xac;" horiz-adv-x="511" 
d="M49 307q-7 0 -13 5.5t-6 13.5v42q0 8 6 13.5t13 5.5h386q8 0 13.5 -6t5.5 -13v-215q0 -7 -5.5 -12.5t-13.5 -5.5h-42q-8 0 -13.5 5.5t-5.5 12.5v154h-325z" />
    <glyph glyph-name="uni00AD" unicode="&#xad;" horiz-adv-x="347" 
d="M65 206q-8 0 -13.5 5t-5.5 13v43q0 19 19 19h216q19 0 19 -19v-43q0 -8 -5.5 -13t-13.5 -5h-216z" />
    <glyph glyph-name="registered" unicode="&#xae;" horiz-adv-x="814" 
d="M47 350q0 149 105.5 254.5t253.5 105.5t254 -106t106 -254t-105.5 -253.5t-254.5 -105.5q-148 0 -253.5 105.5t-105.5 253.5zM116 350q0 -120 85 -205t205 -85q121 0 205.5 85t84.5 205q0 121 -84.5 205.5t-205.5 84.5q-120 0 -205 -84.5t-85 -205.5zM277 187v328
q0 8 5.5 13.5t13.5 5.5h148q50 0 86.5 -32t36.5 -86q0 -82 -76 -110q20 -41 53 -111q5 -10 -0.5 -18.5t-16.5 -8.5h-45q-12 0 -18 14l-50 118h-62v-113q0 -8 -5.5 -13.5t-13.5 -5.5h-37q-8 0 -13.5 5.5t-5.5 13.5zM350 366h89q22 0 36 14t14 35q0 22 -14 35.5t-36 13.5h-89
v-98z" />
    <glyph glyph-name="macron" unicode="&#xaf;" horiz-adv-x="414" 
d="M79 576q-8 0 -13.5 5t-5.5 13v28q0 19 19 19h256q19 0 19 -19v-28q0 -8 -5.5 -13t-13.5 -5h-256z" />
    <glyph glyph-name="degree" unicode="&#xb0;" horiz-adv-x="320" 
d="M160 440q-56 0 -95.5 39.5t-39.5 95.5t39.5 95.5t95.5 39.5t95.5 -39.5t39.5 -95.5t-39.5 -95.5t-95.5 -39.5zM160 508q25 0 44.5 20.5t19.5 46.5q0 25 -19.5 44.5t-44.5 19.5q-26 0 -46.5 -19.5t-20.5 -44.5q0 -26 20.5 -46.5t46.5 -20.5z" />
    <glyph glyph-name="plusminus" unicode="&#xb1;" horiz-adv-x="574" 
d="M247 263v110h-153q-8 0 -13.5 5.5t-5.5 13.5v42q0 8 5.5 13.5t13.5 5.5h153v148q0 7 5.5 12.5t13.5 5.5h42q8 0 13.5 -5.5t5.5 -12.5v-148h154q7 0 12.5 -5.5t5.5 -13.5v-42q0 -8 -5.5 -13.5t-12.5 -5.5h-154v-110q0 -7 -5.5 -12.5t-13.5 -5.5h-42q-8 0 -13.5 5.5
t-5.5 12.5zM75 71v42q0 7 5.5 13t13.5 6h387q7 0 12.5 -5.5t5.5 -13.5v-42q0 -8 -5.5 -13.5t-12.5 -5.5h-387q-8 0 -13.5 6t-5.5 13z" />
    <glyph glyph-name="twosuperior" unicode="&#xb2;" horiz-adv-x="292" 
d="M46 504q-10 0 -10 9v15l118 130q29 31 29 53q0 16 -13 28.5t-36 12.5q-28 0 -53 -25q-7 -7 -14 1l-21 26q-7 10 2 16q40 40 95 40q50 0 78.5 -25.5t28.5 -65.5t-43 -88l-67 -73h100q9 0 9 -10v-35q0 -9 -9 -9h-194z" />
    <glyph glyph-name="threesuperior" unicode="&#xb3;" horiz-adv-x="279" 
d="M132 494q-62 0 -99 37q-8 6 0 14l21 25q7 7 15 0l3 -2l6 -4t9 -5t11.5 -5t13 -3.5t14.5 -1.5q22 0 36.5 10.5t14.5 27.5q0 18 -15.5 29.5t-44.5 11.5h-30q-13 0 -13 11v28q0 12 13 12h30q25 0 39 10.5t14 26.5q0 17 -13.5 27.5t-32.5 10.5q-26 0 -48 -20q-7 -6 -14 1
l-22 24q-9 9 1 15q35 36 91 36q46 0 76 -22.5t30 -60.5q0 -24 -15.5 -43t-35.5 -27v-2q22 -9 41 -28.5t19 -46.5q0 -39 -32.5 -62.5t-82.5 -23.5z" />
    <glyph glyph-name="acute" unicode="&#xb4;" horiz-adv-x="302" 
d="M97 543q-18 -9 -24 4l-14 29q-6 13 6 19l157 91q4 4 13.5 3.5t12.5 -6.5l23 -44q8 -17 -6 -24z" />
    <glyph glyph-name="mu" unicode="&#xb5;" horiz-adv-x="513" 
d="M161 1v-282q0 -7 -5.5 -13t-13.5 -6h-56q-8 0 -13.5 6t-5.5 13v662q0 7 5.5 13t13.5 6h57q7 0 13 -6t6 -13v-201q0 -48 21.5 -74t60.5 -26t67.5 24t31.5 42v235q0 19 22 19h52q7 0 13 -6t6 -13v-362q0 -7 -6 -13t-13 -6h-28q-13 0 -18 16l-10 29l-5 -5q-5 -4 -8.5 -7
t-11 -9t-14.5 -10t-18 -9t-21.5 -8t-24.5 -5t-29 -2q-38 0 -68 11z" />
    <glyph glyph-name="paragraph" unicode="&#xb6;" horiz-adv-x="699" 
d="M229 281q-85 0 -146.5 61t-61.5 149q0 86 56.5 147.5t137.5 61.5l449 -1q8 0 13.5 -5.5t5.5 -13.5v-33q0 -8 -5.5 -13.5t-13.5 -5.5h-94v-909q0 -8 -5.5 -13.5t-13.5 -5.5h-38q-7 0 -13 6t-6 13v909h-146v-909q0 -7 -6 -13t-13 -6h-37q-8 0 -13.5 6t-5.5 13v562h-44z" />
    <glyph glyph-name="periodcentered" unicode="&#xb7;" horiz-adv-x="237" 
d="M118 245q-30 0 -51.5 22t-21.5 51q0 31 21.5 53t51.5 22q31 0 52.5 -22t21.5 -53q0 -30 -22 -51.5t-52 -21.5z" />
    <glyph glyph-name="cedilla" unicode="&#xb8;" horiz-adv-x="247" 
d="M54 0h60v-53q46 -6 73.5 -33.5t27.5 -69.5q0 -44 -30.5 -74t-74.5 -30q-46 0 -76 35q-13 15 1 27l17 14q13 9 22 -1q14 -15 36 -15q17 0 28 12t11 30q0 47 -78 56q-17 3 -17 19v83z" />
    <glyph glyph-name="onesuperior" unicode="&#xb9;" horiz-adv-x="193" 
d="M86 504q-10 0 -10 9v201l-45 -7q-9 -2 -9 6l-4 24q0 6 5 11l72 52h40q9 0 9 -9v-278q0 -9 -9 -9h-49z" />
    <glyph glyph-name="ordmasculine" unicode="&#xba;" horiz-adv-x="314" 
d="M157 395q-60 0 -93 41.5t-33 115.5q0 75 33 116.5t93 41.5t93 -41.5t33 -116.5q0 -74 -33 -115.5t-93 -41.5zM157 456q26 0 41 25t15 71t-15 71.5t-41 25.5q-55 0 -55 -97q0 -96 55 -96z" />
    <glyph glyph-name="guillemotright" unicode="&#xbb;" horiz-adv-x="443" 
d="M233 61l68 147l-71 139q-6 12 -2 21.5t17 9.5h35q11 0 18 -12l109 -148q8 -13 0 -24l-104 -155q-6 -8 -15 -8h-40q-12 0 -16.5 9t1.5 21zM67 31q-12 0 -16.5 9t1.5 21l68 147l-71 139q-6 12 -2 21.5t17 9.5h35q11 0 18 -12l109 -148q8 -13 0 -24l-104 -155q-6 -8 -15 -8
h-40z" />
    <glyph glyph-name="onequarter" unicode="&#xbc;" horiz-adv-x="648" 
d="M88 27l343 663q7 10 17 10h33q11 0 16.5 -8.5t0.5 -18.5l-345 -663q-5 -10 -17 -10h-31q-11 0 -16.5 8.5t-0.5 18.5zM96 404q-10 0 -10 9v201l-45 -7q-9 -2 -9 6l-4 24q0 6 5 11l72 52h40q9 0 9 -9v-278q0 -9 -9 -9h-49zM333 66v40l167 187q3 3 8 3h31q10 0 10 -9v-178
h40q9 0 9 -8v-34q0 -9 -9 -9h-40v-49q0 -9 -10 -9h-44q-10 0 -10 9v49h-143q-9 0 -9 8zM397 109h90v101z" />
    <glyph glyph-name="onehalf" unicode="&#xbd;" horiz-adv-x="643" 
d="M88 27l343 663q7 10 17 10h33q11 0 16.5 -8.5t0.5 -18.5l-345 -663q-5 -10 -17 -10h-31q-11 0 -16.5 8.5t-0.5 18.5zM96 404q-10 0 -10 9v201l-45 -7q-9 -2 -9 6l-4 24q0 6 5 11l72 52h40q9 0 9 -9v-278q0 -9 -9 -9h-49zM368 9v15l118 130q29 31 29 53q0 16 -13 28.5
t-36 12.5q-28 0 -53 -25q-7 -7 -14 1l-21 26q-7 10 2 16q40 40 95 40q50 0 78.5 -25.5t28.5 -65.5t-43 -88l-67 -73h100q9 0 9 -10v-35q0 -9 -9 -9h-194q-10 0 -10 9z" />
    <glyph glyph-name="threequarters" unicode="&#xbe;" horiz-adv-x="689" 
d="M137 394q-62 0 -99 37q-8 6 0 14l21 25q7 7 15 0l3 -2l6 -4t9 -5t11.5 -5t13 -3.5t14.5 -1.5q22 0 36.5 10.5t14.5 27.5q0 18 -15.5 29.5t-44.5 11.5h-30q-13 0 -13 11v28q0 12 13 12h30q25 0 39 10.5t14 26.5q0 17 -13.5 27.5t-32.5 10.5q-26 0 -48 -20q-7 -6 -14 1
l-22 24q-9 9 1 15q35 36 91 36q46 0 76 -22.5t30 -60.5q0 -24 -15.5 -43t-35.5 -27v-2q22 -9 41 -28.5t19 -46.5q0 -39 -32.5 -62.5t-82.5 -23.5zM129 27l343 663q7 10 17 10h33q11 0 16.5 -8.5t0.5 -18.5l-345 -663q-5 -10 -17 -10h-31q-11 0 -16.5 8.5t-0.5 18.5zM374 66
v40l167 187q3 3 8 3h31q10 0 10 -9v-178h40q9 0 9 -8v-34q0 -9 -9 -9h-40v-49q0 -9 -10 -9h-44q-10 0 -10 9v49h-143q-9 0 -9 8zM438 109h90v101z" />
    <glyph glyph-name="questiondown" unicode="&#xbf;" horiz-adv-x="251" 
d="M134 271q-29 0 -49.5 20.5t-20.5 49.5t20.5 49t49.5 20q28 0 48.5 -20t20.5 -49t-20 -49.5t-49 -20.5zM85 71v37q0 20 21 20h54q8 0 13.5 -5.5t5.5 -13.5v-42q0 -37 -22.5 -66.5t-50 -47t-50 -44t-22.5 -56.5q0 -32 24 -54.5t66 -22.5q20 0 37.5 4t31.5 12.5t22 14.5
t19 16.5t13 12.5q12 10 24 0l33 -32q12 -10 0 -26q-3 -4 -8 -9.5t-22.5 -21t-37.5 -27t-53 -21t-69 -9.5q-79 0 -131.5 45t-52.5 116q0 35 16 64t39 48t45.5 35.5t38.5 35t16 37.5z" />
    <glyph glyph-name="Agrave" unicode="&#xc0;" horiz-adv-x="662" 
d="M20 0q-11 0 -16.5 8t-0.5 18l307 673q6 11 17 11h10q11 0 17 -11l305 -673q5 -10 -0.5 -18t-16.5 -8h-63q-16 0 -23 15l-62 137h-327q-10 -23 -30.5 -68.5t-30.5 -68.5q-6 -15 -23 -15h-63zM206 238h250l-123 274h-5zM400 774l-168 72q-14 7 -6 24l23 44q3 6 12.5 6.5
t13.5 -3.5l157 -91q12 -6 6 -19l-14 -28q-6 -13 -24 -5z" />
    <glyph glyph-name="Aacute" unicode="&#xc1;" horiz-adv-x="662" 
d="M20 0q-11 0 -16.5 8t-0.5 18l307 673q6 11 17 11h10q11 0 17 -11l305 -673q5 -10 -0.5 -18t-16.5 -8h-63q-16 0 -23 15l-62 137h-327q-10 -23 -30.5 -68.5t-30.5 -68.5q-6 -15 -23 -15h-63zM206 238h250l-123 274h-5zM262 774q-18 -8 -24 5l-14 28q-6 12 6 19l157 91
q4 4 13.5 3.5t12.5 -6.5l23 -44q10 -16 -6 -24z" />
    <glyph glyph-name="Acircumflex" unicode="&#xc2;" horiz-adv-x="662" 
d="M20 0q-11 0 -16.5 8t-0.5 18l307 673q6 11 17 11h10q11 0 17 -11l305 -673q5 -10 -0.5 -18t-16.5 -8h-63q-16 0 -23 15l-62 137h-327q-10 -23 -30.5 -68.5t-30.5 -68.5q-6 -15 -23 -15h-63zM206 238h250l-123 274h-5zM235 768q-14 -8 -23 3l-20 27q-7 10 6 19l125 98
q11 9 24 0l125 -98q13 -9 6 -19l-20 -27q-9 -12 -23 -3l-100 65z" />
    <glyph glyph-name="Atilde" unicode="&#xc3;" horiz-adv-x="662" 
d="M20 0q-11 0 -16.5 8t-0.5 18l307 673q6 11 17 11h10q11 0 17 -11l305 -673q5 -10 -0.5 -18t-16.5 -8h-63q-16 0 -23 15l-62 137h-327q-10 -23 -30.5 -68.5t-30.5 -68.5q-6 -15 -23 -15h-63zM206 238h250l-123 274h-5zM211 792l-23 15q-13 8 -6 23q42 84 98 84
q25 0 45.5 -16t35.5 -32t28 -16q8 0 15 4.5t10.5 9.5t8.5 14t7 12q10 17 25 9q1 0 11.5 -7t14.5 -12q5 -9 -3 -27q-34 -75 -94 -75q-28 0 -61.5 32.5t-45.5 32.5q-24 0 -43 -41q-8 -18 -23 -10z" />
    <glyph glyph-name="Adieresis" unicode="&#xc4;" horiz-adv-x="662" 
d="M20 0q-11 0 -16.5 8t-0.5 18l307 673q6 11 17 11h10q11 0 17 -11l305 -673q5 -10 -0.5 -18t-16.5 -8h-63q-16 0 -23 15l-62 137h-327q-10 -23 -30.5 -68.5t-30.5 -68.5q-6 -15 -23 -15h-63zM206 238h250l-123 274h-5zM444 782q-23 0 -39.5 17t-16.5 40t16.5 39.5
t39.5 16.5t40 -16.5t17 -39.5t-17 -40t-40 -17zM215 782q-23 0 -39.5 17t-16.5 40t16.5 39.5t39.5 16.5t40 -16.5t17 -39.5t-17 -40t-40 -17z" />
    <glyph glyph-name="Aring" unicode="&#xc5;" horiz-adv-x="662" 
d="M20 0q-11 0 -16.5 8t-0.5 18l307 673q6 11 17 11h10q11 0 17 -11l305 -673q5 -10 -0.5 -18t-16.5 -8h-63q-16 0 -23 15l-62 137h-327q-10 -23 -30.5 -68.5t-30.5 -68.5q-6 -15 -23 -15h-63zM206 238h250l-123 274h-5zM330 756q-46 0 -78.5 32t-32.5 79t32.5 79t78.5 32
t78.5 -32.5t32.5 -78.5t-32.5 -78.5t-78.5 -32.5zM330 811q21 0 37 17t16 39t-15.5 37.5t-37.5 15.5q-23 0 -39.5 -15.5t-16.5 -37.5t16.5 -39t39.5 -17z" />
    <glyph glyph-name="AE" unicode="&#xc6;" horiz-adv-x="897" 
d="M3 0q-11 0 -14.5 8t2.5 18l401 643q15 24 25 28q7 3 19 3h388q8 0 13.5 -5.5t5.5 -13.5v-56q0 -8 -5.5 -13.5t-13.5 -5.5h-320v-204h271q7 0 13 -6t6 -13v-56q0 -8 -5.5 -13.5t-13.5 -5.5h-271v-215h320q8 0 13.5 -5.5t5.5 -13.5v-55q0 -8 -5.5 -13.5t-13.5 -5.5h-401
q-8 0 -13.5 5.5t-5.5 13.5v133h-222l-87 -139q-9 -13 -22 -13h-70zM234 238h170v274z" />
    <glyph glyph-name="Ccedilla" unicode="&#xc7;" horiz-adv-x="698" 
d="M349 -5q-130 20 -216 120t-86 234q0 150 105.5 255.5t255.5 105.5q135 0 242 -93q15 -14 1 -28l-44 -45q-11 -14 -25 0q-77 67 -173 67q-106 0 -178.5 -77t-72.5 -183t73 -182.5t179 -76.5q86 0 172 66q13 10 24 1l46 -45q6 -6 5.5 -13.5t-6.5 -13.5q-100 -97 -242 -97
v-43q46 -6 73.5 -33.5t27.5 -69.5q0 -44 -30.5 -74t-74.5 -30q-46 0 -76 35q-13 15 1 27l17 14q13 9 22 -1q14 -15 36 -15q17 0 28 12t11 30q0 47 -78 56q-17 3 -17 19v78z" />
    <glyph glyph-name="Egrave" unicode="&#xc8;" horiz-adv-x="589" 
d="M97 19v662q0 8 5.5 13.5t13.5 5.5h400q8 0 13.5 -5.5t5.5 -13.5v-56q0 -8 -5.5 -13.5t-13.5 -5.5h-316v-204h267q7 0 13 -6t6 -13v-56q0 -8 -5.5 -13.5t-13.5 -5.5h-267v-215h316q8 0 13.5 -5.5t5.5 -13.5v-55q0 -8 -5.5 -13.5t-13.5 -5.5h-400q-8 0 -13.5 5.5t-5.5 13.5
zM382 774l-168 72q-14 7 -6 24l23 44q3 6 12.5 6.5t13.5 -3.5l157 -91q12 -6 6 -19l-14 -28q-6 -13 -24 -5z" />
    <glyph glyph-name="Eacute" unicode="&#xc9;" horiz-adv-x="589" 
d="M97 19v662q0 8 5.5 13.5t13.5 5.5h400q8 0 13.5 -5.5t5.5 -13.5v-56q0 -8 -5.5 -13.5t-13.5 -5.5h-316v-204h267q7 0 13 -6t6 -13v-56q0 -8 -5.5 -13.5t-13.5 -5.5h-267v-215h316q8 0 13.5 -5.5t5.5 -13.5v-55q0 -8 -5.5 -13.5t-13.5 -5.5h-400q-8 0 -13.5 5.5t-5.5 13.5
zM245 774q-18 -8 -24 5l-14 28q-6 12 6 19l157 91q4 4 13.5 3.5t12.5 -6.5l23 -44q10 -16 -6 -24z" />
    <glyph glyph-name="Ecircumflex" unicode="&#xca;" horiz-adv-x="589" 
d="M97 19v662q0 8 5.5 13.5t13.5 5.5h400q8 0 13.5 -5.5t5.5 -13.5v-56q0 -8 -5.5 -13.5t-13.5 -5.5h-316v-204h267q7 0 13 -6t6 -13v-56q0 -8 -5.5 -13.5t-13.5 -5.5h-267v-215h316q8 0 13.5 -5.5t5.5 -13.5v-55q0 -8 -5.5 -13.5t-13.5 -5.5h-400q-8 0 -13.5 5.5t-5.5 13.5
zM211 769q-14 -8 -23 3l-20 27q-7 10 6 19l125 98q11 9 24 0l125 -98q13 -9 6 -19l-20 -27q-9 -12 -23 -3l-100 65z" />
    <glyph glyph-name="Edieresis" unicode="&#xcb;" horiz-adv-x="589" 
d="M97 19v662q0 8 5.5 13.5t13.5 5.5h400q8 0 13.5 -5.5t5.5 -13.5v-56q0 -8 -5.5 -13.5t-13.5 -5.5h-316v-204h267q7 0 13 -6t6 -13v-56q0 -8 -5.5 -13.5t-13.5 -5.5h-267v-215h316q8 0 13.5 -5.5t5.5 -13.5v-55q0 -8 -5.5 -13.5t-13.5 -5.5h-400q-8 0 -13.5 5.5t-5.5 13.5
zM429 782q-23 0 -39.5 17t-16.5 40t16.5 39.5t39.5 16.5t40 -16.5t17 -39.5t-17 -40t-40 -17zM200 782q-23 0 -39.5 17t-16.5 40t16.5 39.5t39.5 16.5t40 -16.5t17 -39.5t-17 -40t-40 -17z" />
    <glyph glyph-name="Igrave" unicode="&#xcc;" horiz-adv-x="298" 
d="M97 19v662q0 7 5.5 13t13.5 6h66q8 0 13.5 -6t5.5 -13v-662q0 -7 -5.5 -13t-13.5 -6h-66q-8 0 -13.5 6t-5.5 13zM217 774l-168 72q-14 7 -6 24l23 44q3 6 12.5 6.5t13.5 -3.5l157 -91q12 -6 6 -19l-14 -28q-6 -13 -24 -5z" />
    <glyph glyph-name="Iacute" unicode="&#xcd;" horiz-adv-x="298" 
d="M97 19v662q0 7 5.5 13t13.5 6h66q8 0 13.5 -6t5.5 -13v-662q0 -7 -5.5 -13t-13.5 -6h-66q-8 0 -13.5 6t-5.5 13zM80 774q-18 -8 -24 5l-14 28q-6 12 6 19l157 91q4 4 13.5 3.5t12.5 -6.5l23 -44q10 -16 -6 -24z" />
    <glyph glyph-name="Icircumflex" unicode="&#xce;" horiz-adv-x="298" 
d="M97 19v662q0 7 5.5 13t13.5 6h66q8 0 13.5 -6t5.5 -13v-662q0 -7 -5.5 -13t-13.5 -6h-66q-8 0 -13.5 6t-5.5 13zM48 769q-14 -8 -23 3l-20 27q-7 10 6 19l125 98q11 9 24 0l125 -98q13 -9 6 -19l-20 -27q-9 -12 -23 -3l-100 65z" />
    <glyph glyph-name="Idieresis" unicode="&#xcf;" horiz-adv-x="298" 
d="M97 19v662q0 7 5.5 13t13.5 6h66q8 0 13.5 -6t5.5 -13v-662q0 -7 -5.5 -13t-13.5 -6h-66q-8 0 -13.5 6t-5.5 13zM264 782q-23 0 -39.5 17t-16.5 40t16.5 39.5t39.5 16.5t40 -16.5t17 -39.5t-17 -40t-40 -17zM35 782q-23 0 -39.5 17t-16.5 40t16.5 39.5t39.5 16.5
t40 -16.5t17 -39.5t-17 -40t-40 -17z" />
    <glyph glyph-name="Eth" unicode="&#xd0;" horiz-adv-x="747" 
d="M101 19v303h-29q-7 0 -12.5 5.5t-5.5 13.5v10q0 8 5.5 13.5t12.5 5.5h29v311q0 8 5.5 13.5t12.5 5.5h230q145 0 248 -102.5t103 -246.5q0 -145 -103 -248t-248 -103h-230q-7 0 -12.5 5.5t-5.5 13.5zM203 95h132q110 0 182 72.5t72 183.5q0 110 -72 182t-182 72h-132v-235
h188q8 0 13.5 -5.5t5.5 -13.5v-11q0 -8 -5.5 -13t-13.5 -5h-188v-227z" />
    <glyph glyph-name="Ntilde" unicode="&#xd1;" horiz-adv-x="775" 
d="M97 19v673q0 7 5.5 12.5t13.5 5.5h25l434 -502h1v473q0 8 5.5 13.5t13.5 5.5h64q7 0 13 -6t6 -13v-673q0 -7 -5.5 -12.5t-13.5 -5.5h-26l-434 516h-1v-487q0 -8 -5.5 -13.5t-13.5 -5.5h-63q-8 0 -13.5 6t-5.5 13zM270 792l-23 15q-13 8 -6 23q42 84 98 84q25 0 45.5 -16
t35.5 -32t28 -16q8 0 15 4.5t10.5 9.5t8.5 14t7 12q10 17 25 9q1 0 11.5 -7t14.5 -12q5 -9 -3 -27q-34 -75 -94 -75q-28 0 -61.5 32.5t-45.5 32.5q-24 0 -43 -41q-8 -18 -23 -10z" />
    <glyph glyph-name="Ograve" unicode="&#xd2;" horiz-adv-x="811" 
d="M46 349q0 150 104.5 255.5t254.5 105.5t255 -105.5t105 -255.5t-105 -254.5t-255 -104.5t-254.5 104.5t-104.5 254.5zM146 349q0 -107 76 -183t183 -76t183.5 76t76.5 183t-76.5 184t-183.5 77q-106 0 -182.5 -77t-76.5 -184zM474 774l-168 72q-14 7 -6 24l23 44
q3 6 12.5 6.5t13.5 -3.5l157 -91q12 -6 6 -19l-14 -28q-6 -13 -24 -5z" />
    <glyph glyph-name="Oacute" unicode="&#xd3;" horiz-adv-x="811" 
d="M46 349q0 150 104.5 255.5t254.5 105.5t255 -105.5t105 -255.5t-105 -254.5t-255 -104.5t-254.5 104.5t-104.5 254.5zM146 349q0 -107 76 -183t183 -76t183.5 76t76.5 183t-76.5 184t-183.5 77q-106 0 -182.5 -77t-76.5 -184zM338 774q-18 -8 -24 5l-14 28q-6 12 6 19
l157 91q4 4 13.5 3.5t12.5 -6.5l23 -44q10 -16 -6 -24z" />
    <glyph glyph-name="Ocircumflex" unicode="&#xd4;" horiz-adv-x="811" 
d="M46 349q0 150 104.5 255.5t254.5 105.5t255 -105.5t105 -255.5t-105 -254.5t-255 -104.5t-254.5 104.5t-104.5 254.5zM146 349q0 -107 76 -183t183 -76t183.5 76t76.5 183t-76.5 184t-183.5 77q-106 0 -182.5 -77t-76.5 -184zM304 769q-14 -8 -23 3l-20 27q-7 10 6 19
l125 98q11 9 24 0l125 -98q13 -9 6 -19l-20 -27q-9 -12 -23 -3l-100 65z" />
    <glyph glyph-name="Otilde" unicode="&#xd5;" horiz-adv-x="811" 
d="M46 349q0 150 104.5 255.5t254.5 105.5t255 -105.5t105 -255.5t-105 -254.5t-255 -104.5t-254.5 104.5t-104.5 254.5zM146 349q0 -107 76 -183t183 -76t183.5 76t76.5 183t-76.5 184t-183.5 77q-106 0 -182.5 -77t-76.5 -184zM283 792l-23 15q-13 8 -6 23q42 84 98 84
q25 0 45.5 -16t35.5 -32t28 -16q8 0 15 4.5t10.5 9.5t8.5 14t7 12q10 17 25 9q1 0 11.5 -7t14.5 -12q5 -9 -3 -27q-34 -75 -94 -75q-28 0 -61.5 32.5t-45.5 32.5q-24 0 -43 -41q-8 -18 -23 -10z" />
    <glyph glyph-name="Odieresis" unicode="&#xd6;" horiz-adv-x="811" 
d="M46 349q0 150 104.5 255.5t254.5 105.5t255 -105.5t105 -255.5t-105 -254.5t-255 -104.5t-254.5 104.5t-104.5 254.5zM146 349q0 -107 76 -183t183 -76t183.5 76t76.5 183t-76.5 184t-183.5 77q-106 0 -182.5 -77t-76.5 -184zM520 782q-23 0 -39.5 17t-16.5 40t16.5 39.5
t39.5 16.5t40 -16.5t17 -39.5t-17 -40t-40 -17zM291 782q-23 0 -39.5 17t-16.5 40t16.5 39.5t39.5 16.5t40 -16.5t17 -39.5t-17 -40t-40 -17z" />
    <glyph glyph-name="multiply" unicode="&#xd7;" horiz-adv-x="471" 
d="M101 182l-30 30q-13 13 0 26l108 109l-108 108q-13 13 0 27l29 30q5 5 13.5 5t13.5 -5l108 -108l109 109q12 13 26 -1l30 -30q14 -14 1 -26l-109 -109l109 -109q12 -14 -1 -27l-30 -29q-14 -14 -26 -1l-109 110l-108 -109q-13 -13 -26 0z" />
    <glyph glyph-name="Oslash" unicode="&#xd8;" horiz-adv-x="811" 
d="M72 22q-14 14 -1 26l63 63q-88 101 -88 238q0 150 104.5 255.5t254.5 105.5q135 0 238 -90l66 65q13 13 26 0l7 -7q13 -13 0 -26l-65 -66q88 -103 88 -237q0 -150 -105 -254.5t-255 -104.5q-137 0 -237 87l-63 -63q-13 -12 -26 1zM207 183l365 366q-74 61 -167 61
q-106 0 -182.5 -77t-76.5 -184q0 -94 61 -166zM240 149q72 -59 165 -59q107 0 183.5 76t76.5 183q0 96 -60 165z" />
    <glyph glyph-name="Ugrave" unicode="&#xd9;" horiz-adv-x="721" 
d="M89 261v420q0 7 5.5 13t13.5 6h67q8 0 13.5 -5.5t5.5 -13.5v-413q0 -77 45.5 -127.5t120.5 -50.5q76 0 122 50t46 126v415q0 8 5.5 13.5t13.5 5.5h67q8 0 13.5 -6t5.5 -13v-420q0 -115 -77.5 -193t-195.5 -78q-117 0 -194 78t-77 193zM427 774l-168 72q-14 7 -6 24l23 44
q3 6 12.5 6.5t13.5 -3.5l157 -91q12 -6 6 -19l-14 -28q-6 -13 -24 -5z" />
    <glyph glyph-name="Uacute" unicode="&#xda;" horiz-adv-x="721" 
d="M89 261v420q0 7 5.5 13t13.5 6h67q8 0 13.5 -5.5t5.5 -13.5v-413q0 -77 45.5 -127.5t120.5 -50.5q76 0 122 50t46 126v415q0 8 5.5 13.5t13.5 5.5h67q8 0 13.5 -6t5.5 -13v-420q0 -115 -77.5 -193t-195.5 -78q-117 0 -194 78t-77 193zM291 774q-18 -8 -24 5l-14 28
q-6 12 6 19l157 91q4 4 13.5 3.5t12.5 -6.5l23 -44q10 -16 -6 -24z" />
    <glyph glyph-name="Ucircumflex" unicode="&#xdb;" horiz-adv-x="721" 
d="M89 261v420q0 7 5.5 13t13.5 6h67q8 0 13.5 -5.5t5.5 -13.5v-413q0 -77 45.5 -127.5t120.5 -50.5q76 0 122 50t46 126v415q0 8 5.5 13.5t13.5 5.5h67q8 0 13.5 -6t5.5 -13v-420q0 -115 -77.5 -193t-195.5 -78q-117 0 -194 78t-77 193zM261 769q-14 -8 -23 3l-20 27
q-7 10 6 19l125 98q11 9 24 0l125 -98q13 -9 6 -19l-20 -27q-9 -12 -23 -3l-100 65z" />
    <glyph glyph-name="Udieresis" unicode="&#xdc;" horiz-adv-x="721" 
d="M89 261v420q0 7 5.5 13t13.5 6h67q8 0 13.5 -5.5t5.5 -13.5v-413q0 -77 45.5 -127.5t120.5 -50.5q76 0 122 50t46 126v415q0 8 5.5 13.5t13.5 5.5h67q8 0 13.5 -6t5.5 -13v-420q0 -115 -77.5 -193t-195.5 -78q-117 0 -194 78t-77 193zM478 782q-23 0 -39.5 17t-16.5 40
t16.5 39.5t39.5 16.5t40 -16.5t17 -39.5t-17 -40t-40 -17zM249 782q-23 0 -39.5 17t-16.5 40t16.5 39.5t39.5 16.5t40 -16.5t17 -39.5t-17 -40t-40 -17z" />
    <glyph glyph-name="Yacute" unicode="&#xdd;" horiz-adv-x="574" 
d="M234 19v318l-234 334q-6 10 -1 19.5t17 9.5h74q9 0 16 -9l181 -255l181 255q7 9 16 9h75q12 0 17 -9.5t-1 -19.5l-237 -333v-319q0 -7 -6 -13t-13 -6h-66q-8 0 -13.5 5.5t-5.5 13.5zM218 774q-18 -8 -24 5l-14 28q-6 12 6 19l157 91q4 4 13.5 3.5t12.5 -6.5l23 -44
q10 -16 -6 -24z" />
    <glyph glyph-name="Thorn" unicode="&#xde;" horiz-adv-x="594" 
d="M97 19v662q0 8 5.5 13.5t13.5 5.5h65q7 0 13 -6t6 -13v-108h144q92 1 158 -64.5t66 -156.5q0 -93 -65.5 -159t-157.5 -66h-145v-108q0 -7 -6 -13t-13 -6h-65q-8 0 -13.5 5.5t-5.5 13.5zM200 225h138q52 0 89.5 37.5t37.5 91.5q0 51 -37.5 85.5t-89.5 34.5h-138v-249z" />
    <glyph glyph-name="germandbls" unicode="&#xdf;" horiz-adv-x="519" 
d="M65 19v392q0 147 58.5 223t164.5 76q70 0 119 -39t49 -115q0 -40 -21 -81t-42 -73.5t-21 -50.5q0 -10 17.5 -29t39 -39.5t39 -55.5t17.5 -73q0 -68 -46 -116t-126 -48q-23 0 -44 3q-15 1 -15 21v46q0 17 19 16l15 -2q14 -2 25 -2q34 0 54 22t20 59q0 27 -18.5 54t-40 45
t-40 42t-18.5 46q0 32 44 105.5t44 106.5t-22.5 53t-54.5 20q-55 0 -87.5 -53t-32.5 -162v-391q0 -7 -5.5 -13t-13.5 -6h-58q-8 0 -13.5 6t-5.5 13z" />
    <glyph glyph-name="agrave" unicode="&#xe0;" horiz-adv-x="422" 
d="M36 124q0 56 42.5 92.5t117.5 36.5q19 0 38.5 -3t29.5 -6l11 -3q1 49 -12 68.5t-50 19.5q-49 0 -112 -18q-17 -4 -22 16l-8 37q-4 17 13 23q54 23 138 23q46 0 75.5 -13t43 -39.5t17.5 -54.5t4 -71v-213q0 -7 -6 -13t-13 -6h-28q-11 0 -17 14l-10 27q-53 -51 -123 -51
q-57 0 -93 36.5t-36 97.5zM123 125q0 -28 17 -46t44 -18q28 0 54 16.5t36 33.5v64q-24 16 -70 16q-36 0 -58.5 -18t-22.5 -48zM292 543l-168 72q-14 7 -6 24l23 44q3 6 12.5 6.5t13.5 -3.5l157 -91q12 -6 6 -19l-14 -29q-6 -13 -24 -4z" />
    <glyph glyph-name="aacute" unicode="&#xe1;" horiz-adv-x="422" 
d="M36 124q0 56 42.5 92.5t117.5 36.5q19 0 38.5 -3t29.5 -6l11 -3q1 49 -12 68.5t-50 19.5q-49 0 -112 -18q-17 -4 -22 16l-8 37q-4 17 13 23q54 23 138 23q46 0 75.5 -13t43 -39.5t17.5 -54.5t4 -71v-213q0 -7 -6 -13t-13 -6h-28q-11 0 -17 14l-10 27q-53 -51 -123 -51
q-57 0 -93 36.5t-36 97.5zM123 125q0 -28 17 -46t44 -18q28 0 54 16.5t36 33.5v64q-24 16 -70 16q-36 0 -58.5 -18t-22.5 -48zM139 543q-18 -9 -24 4l-14 29q-6 13 6 19l157 91q4 4 13.5 3.5t12.5 -6.5l23 -44q8 -17 -6 -24z" />
    <glyph glyph-name="acircumflex" unicode="&#xe2;" horiz-adv-x="422" 
d="M36 124q0 56 42.5 92.5t117.5 36.5q19 0 38.5 -3t29.5 -6l11 -3q1 49 -12 68.5t-50 19.5q-49 0 -112 -18q-17 -4 -22 16l-8 37q-4 17 13 23q54 23 138 23q46 0 75.5 -13t43 -39.5t17.5 -54.5t4 -71v-213q0 -7 -6 -13t-13 -6h-28q-11 0 -17 14l-10 27q-53 -51 -123 -51
q-57 0 -93 36.5t-36 97.5zM123 125q0 -28 17 -46t44 -18q28 0 54 16.5t36 33.5v64q-24 16 -70 16q-36 0 -58.5 -18t-22.5 -48zM90 542l-20 27q-7 10 6 19l125 98q11 9 24 0l125 -98q13 -9 6 -19l-20 -27q-9 -12 -23 -3l-100 65l-100 -65q-14 -8 -23 3z" />
    <glyph glyph-name="atilde" unicode="&#xe3;" horiz-adv-x="422" 
d="M36 124q0 56 42.5 92.5t117.5 36.5q19 0 38.5 -3t29.5 -6l11 -3q1 49 -12 68.5t-50 19.5q-49 0 -112 -18q-17 -4 -22 16l-8 37q-4 17 13 23q54 23 138 23q46 0 75.5 -13t43 -39.5t17.5 -54.5t4 -71v-213q0 -7 -6 -13t-13 -6h-28q-11 0 -17 14l-10 27q-53 -51 -123 -51
q-57 0 -93 36.5t-36 97.5zM123 125q0 -28 17 -46t44 -18q28 0 54 16.5t36 33.5v64q-24 16 -70 16q-36 0 -58.5 -18t-22.5 -48zM91 568l-23 15q-13 8 -6 23q42 84 98 84q25 0 45.5 -16t35.5 -32t28 -16q8 0 15 4.5t10.5 9.5t8.5 14t7 12q10 17 25 9q1 0 11.5 -7t14.5 -12
q5 -9 -3 -27q-34 -75 -94 -75q-28 0 -61.5 32.5t-45.5 32.5q-24 0 -43 -41q-8 -18 -23 -10z" />
    <glyph glyph-name="adieresis" unicode="&#xe4;" horiz-adv-x="422" 
d="M36 124q0 56 42.5 92.5t117.5 36.5q19 0 38.5 -3t29.5 -6l11 -3q1 49 -12 68.5t-50 19.5q-49 0 -112 -18q-17 -4 -22 16l-8 37q-4 17 13 23q54 23 138 23q46 0 75.5 -13t43 -39.5t17.5 -54.5t4 -71v-213q0 -7 -6 -13t-13 -6h-28q-11 0 -17 14l-10 27q-53 -51 -123 -51
q-57 0 -93 36.5t-36 97.5zM123 125q0 -28 17 -46t44 -18q28 0 54 16.5t36 33.5v64q-24 16 -70 16q-36 0 -58.5 -18t-22.5 -48zM317 567q-23 0 -39.5 16.5t-16.5 39.5q0 24 16.5 40.5t39.5 16.5q24 0 40.5 -16.5t16.5 -40.5q0 -23 -16.5 -39.5t-40.5 -16.5zM120 567
q-23 0 -39.5 16.5t-16.5 39.5q0 24 16.5 40.5t39.5 16.5q24 0 40.5 -16.5t16.5 -40.5q0 -23 -16.5 -39.5t-40.5 -16.5z" />
    <glyph glyph-name="aring" unicode="&#xe5;" horiz-adv-x="422" 
d="M36 124q0 56 42.5 92.5t117.5 36.5q19 0 38.5 -3t29.5 -6l11 -3q1 49 -12 68.5t-50 19.5q-49 0 -112 -18q-17 -4 -22 16l-8 37q-4 17 13 23q54 23 138 23q46 0 75.5 -13t43 -39.5t17.5 -54.5t4 -71v-213q0 -7 -6 -13t-13 -6h-28q-11 0 -17 14l-10 27q-53 -51 -123 -51
q-57 0 -93 36.5t-36 97.5zM123 125q0 -28 17 -46t44 -18q28 0 54 16.5t36 33.5v64q-24 16 -70 16q-36 0 -58.5 -18t-22.5 -48zM217 488q-47 0 -79 32t-32 79t32 79t79 32q46 0 78.5 -32.5t32.5 -78.5t-32.5 -78.5t-78.5 -32.5zM217 543q21 0 37 17t16 39t-15.5 37.5
t-37.5 15.5q-24 0 -40 -15.5t-16 -37.5t16 -39t40 -17z" />
    <glyph glyph-name="ae" unicode="&#xe6;" horiz-adv-x="677" 
d="M36 125q0 57 41 92.5t111 35.5l84 -6q-1 50 -11.5 68.5t-44.5 18.5q-48 0 -118 -20q-7 -1 -13.5 3t-8.5 12l-7 40q-1 15 16 20q69 21 138 21q89 0 117 -47q53 47 122 47q77 0 130.5 -52t53.5 -133q0 -44 -21 -44h-275q2 -43 35 -75.5t83 -32.5q45 0 89 27q20 11 27 1
q5 -6 14.5 -17.5t14.5 -17.5q11 -15 -3 -26q-58 -50 -148 -50q-94 0 -147 68q-20 -26 -58.5 -47t-85.5 -21q-60 0 -97.5 37t-37.5 98zM355 245h198q-1 37 -28 62.5t-65 25.5q-40 0 -70.5 -25.5t-34.5 -62.5zM123 126q0 -30 20 -46.5t48 -16.5q47 0 82 46v72q-28 10 -73 10
q-32 0 -54.5 -17.5t-22.5 -47.5z" />
    <glyph glyph-name="ccedilla" unicode="&#xe7;" horiz-adv-x="434" 
d="M185 -1q-65 18 -107.5 73t-42.5 127q0 87 63 149t147 62q88 0 145 -71q12 -16 -4 -28l-33 -30q-11 -10 -27 4q-34 38 -80 38q-49 0 -82.5 -36t-33.5 -87q0 -52 33 -88t82 -36q11 0 20 1t17.5 5t13.5 5.5t13 8t10 8t11 10.5l8 8q13 13 27 2l27 -22q17 -14 7 -28
q-52 -82 -154 -84v-43q46 -6 73.5 -33.5t27.5 -69.5q0 -44 -30.5 -74t-74.5 -30q-46 0 -76 35q-13 15 1 27l17 14q13 9 22 -1q14 -15 36 -15q17 0 28 12t11 30q0 47 -78 56q-17 3 -17 19v82z" />
    <glyph glyph-name="egrave" unicode="&#xe8;" horiz-adv-x="451" 
d="M36 200q0 87 56 148.5t144 61.5q78 0 131 -52.5t53 -132.5q0 -13 -2 -27q-2 -17 -18 -17h-272q2 -42 35 -74.5t80 -32.5q44 0 89 29q19 11 27 1l28 -38q12 -14 -2 -26q-58 -50 -148 -50q-89 0 -145 61t-56 149zM133 244h194q-2 36 -29 62.5t-63 26.5q-40 0 -68.5 -25.5
t-33.5 -63.5zM303 543l-168 72q-14 7 -6 24l23 44q3 6 12.5 6.5t13.5 -3.5l157 -91q12 -6 6 -19l-14 -29q-6 -13 -24 -4z" />
    <glyph glyph-name="eacute" unicode="&#xe9;" horiz-adv-x="451" 
d="M36 200q0 87 56 148.5t144 61.5q78 0 131 -52.5t53 -132.5q0 -13 -2 -27q-2 -17 -18 -17h-272q2 -42 35 -74.5t80 -32.5q44 0 89 29q19 11 27 1l28 -38q12 -14 -2 -26q-58 -50 -148 -50q-89 0 -145 61t-56 149zM133 244h194q-2 36 -29 62.5t-63 26.5q-40 0 -68.5 -25.5
t-33.5 -63.5zM165 543q-18 -9 -24 4l-14 29q-6 13 6 19l157 91q4 4 13.5 3.5t12.5 -6.5l23 -44q8 -17 -6 -24z" />
    <glyph glyph-name="ecircumflex" unicode="&#xea;" horiz-adv-x="451" 
d="M36 200q0 87 56 148.5t144 61.5q78 0 131 -52.5t53 -132.5q0 -13 -2 -27q-2 -17 -18 -17h-272q2 -42 35 -74.5t80 -32.5q44 0 89 29q19 11 27 1l28 -38q12 -14 -2 -26q-58 -50 -148 -50q-89 0 -145 61t-56 149zM133 244h194q-2 36 -29 62.5t-63 26.5q-40 0 -68.5 -25.5
t-33.5 -63.5zM113 542l-20 27q-7 10 6 19l125 98q11 9 24 0l125 -98q13 -9 6 -19l-20 -27q-9 -12 -23 -3l-100 65l-100 -65q-14 -8 -23 3z" />
    <glyph glyph-name="edieresis" unicode="&#xeb;" horiz-adv-x="451" 
d="M36 200q0 87 56 148.5t144 61.5q78 0 131 -52.5t53 -132.5q0 -13 -2 -27q-2 -17 -18 -17h-272q2 -42 35 -74.5t80 -32.5q44 0 89 29q19 11 27 1l28 -38q12 -14 -2 -26q-58 -50 -148 -50q-89 0 -145 61t-56 149zM133 244h194q-2 36 -29 62.5t-63 26.5q-40 0 -68.5 -25.5
t-33.5 -63.5zM331 567q-23 0 -39.5 16.5t-16.5 39.5q0 24 16.5 40.5t39.5 16.5q24 0 40.5 -16.5t16.5 -40.5q0 -23 -16.5 -39.5t-40.5 -16.5zM134 567q-23 0 -39.5 16.5t-16.5 39.5q0 24 16.5 40.5t39.5 16.5q24 0 40.5 -16.5t16.5 -40.5q0 -23 -16.5 -39.5t-40.5 -16.5z
" />
    <glyph glyph-name="igrave" unicode="&#xec;" horiz-adv-x="225" 
d="M179 543l-168 72q-14 7 -6 24l23 44q3 6 12.5 6.5t13.5 -3.5l157 -91q12 -6 6 -19l-14 -29q-6 -13 -24 -4zM65 19v362q0 7 5.5 13t13.5 6h57q7 0 13 -6t6 -13v-362q0 -7 -6 -13t-13 -6h-57q-8 0 -13.5 6t-5.5 13z" />
    <glyph glyph-name="iacute" unicode="&#xed;" horiz-adv-x="225" 
d="M42 543q-18 -9 -24 4l-14 29q-6 13 6 19l157 91q4 4 13.5 3.5t12.5 -6.5l23 -44q8 -17 -6 -24zM65 19v362q0 7 5.5 13t13.5 6h57q7 0 13 -6t6 -13v-362q0 -7 -6 -13t-13 -6h-57q-8 0 -13.5 6t-5.5 13z" />
    <glyph glyph-name="icircumflex" unicode="&#xee;" horiz-adv-x="225" 
d="M65 19v362q0 7 5.5 13t13.5 6h57q7 0 13 -6t6 -13v-362q0 -7 -6 -13t-13 -6h-57q-8 0 -13.5 6t-5.5 13zM-11 542l-20 27q-7 10 6 19l125 98q11 9 24 0l125 -98q13 -9 6 -19l-20 -27q-9 -12 -23 -3l-100 65l-100 -65q-14 -8 -23 3z" />
    <glyph glyph-name="idieresis" unicode="&#xef;" horiz-adv-x="225" 
d="M210 567q-23 0 -39.5 16.5t-16.5 39.5q0 24 16.5 40.5t39.5 16.5q24 0 40.5 -16.5t16.5 -40.5q0 -23 -16.5 -39.5t-40.5 -16.5zM13 567q-23 0 -39.5 16.5t-16.5 39.5q0 24 16.5 40.5t39.5 16.5q24 0 40.5 -16.5t16.5 -40.5q0 -23 -16.5 -39.5t-40.5 -16.5zM65 19v362
q0 7 5.5 13t13.5 6h57q7 0 13 -6t6 -13v-362q0 -7 -6 -13t-13 -6h-57q-8 0 -13.5 6t-5.5 13z" />
    <glyph glyph-name="eth" unicode="&#xf0;" horiz-adv-x="535" 
d="M34 219q0 99 62.5 158t147.5 59q66 0 133 -37q-22 81 -117 152l-89 -51q-16 -9 -25 6l-5 10q-10 16 6 25l69 40q-46 27 -83 41q-21 8 -13 27l18 43q7 16 24 10q69 -25 138 -72l69 40q17 8 26 -8l6 -9q4 -6 2 -13.5t-9 -11.5l-53 -31q152 -129 152 -327q0 -122 -60.5 -201
t-174.5 -79q-92 0 -158 67.5t-66 161.5zM126 218q0 -56 38.5 -97t93.5 -41q51 0 85.5 33t46 76.5t6.5 88.5q-6 20 -45 48t-92 28q-55 0 -94 -40t-39 -96z" />
    <glyph glyph-name="ntilde" unicode="&#xf1;" horiz-adv-x="507" 
d="M65 19v362q0 7 5.5 13t13.5 6h29q13 0 16 -12l12 -34q7 8 21.5 19t48.5 24t70 13q86 0 126.5 -52.5t40.5 -137.5v-201q0 -7 -6 -13t-13 -6h-57q-8 0 -13.5 5.5t-5.5 13.5v205q0 48 -22 73.5t-61 25.5q-41 0 -73 -22t-38 -38v-244q0 -19 -23 -19h-52q-8 0 -13.5 6t-5.5 13
zM139 568l-23 15q-13 8 -6 23q42 84 98 84q25 0 45.5 -16t35.5 -32t28 -16q8 0 15 4.5t10.5 9.5t8.5 14t7 12q10 17 25 9q1 0 11.5 -7t14.5 -12q5 -9 -3 -27q-34 -75 -94 -75q-28 0 -61.5 32.5t-45.5 32.5q-24 0 -43 -41q-8 -18 -23 -10z" />
    <glyph glyph-name="ograve" unicode="&#xf2;" horiz-adv-x="474" 
d="M35 201q0 85 59 147t143 62t143 -62t59 -147q0 -87 -59 -149t-143 -62t-143 62t-59 149zM124 201q0 -52 33 -88.5t80 -36.5t80 36.5t33 88.5q0 50 -33 86t-80 36t-80 -36t-33 -86zM306 543l-168 72q-14 7 -6 24l23 44q3 6 12.5 6.5t13.5 -3.5l157 -91q12 -6 6 -19
l-14 -29q-6 -13 -24 -4z" />
    <glyph glyph-name="oacute" unicode="&#xf3;" horiz-adv-x="474" 
d="M35 201q0 85 59 147t143 62t143 -62t59 -147q0 -87 -59 -149t-143 -62t-143 62t-59 149zM124 201q0 -52 33 -88.5t80 -36.5t80 36.5t33 88.5q0 50 -33 86t-80 36t-80 -36t-33 -86zM168 543q-18 -9 -24 4l-14 29q-6 13 6 19l157 91q4 4 13.5 3.5t12.5 -6.5l23 -44
q8 -17 -6 -24z" />
    <glyph glyph-name="ocircumflex" unicode="&#xf4;" horiz-adv-x="474" 
d="M35 201q0 85 59 147t143 62t143 -62t59 -147q0 -87 -59 -149t-143 -62t-143 62t-59 149zM124 201q0 -52 33 -88.5t80 -36.5t80 36.5t33 88.5q0 50 -33 86t-80 36t-80 -36t-33 -86zM113 542l-20 27q-7 10 6 19l125 98q11 9 24 0l125 -98q13 -9 6 -19l-20 -27
q-9 -12 -23 -3l-100 65l-100 -65q-14 -8 -23 3z" />
    <glyph glyph-name="otilde" unicode="&#xf5;" horiz-adv-x="474" 
d="M35 201q0 85 59 147t143 62t143 -62t59 -147q0 -87 -59 -149t-143 -62t-143 62t-59 149zM124 201q0 -52 33 -88.5t80 -36.5t80 36.5t33 88.5q0 50 -33 86t-80 36t-80 -36t-33 -86zM115 568l-23 15q-13 8 -6 23q42 84 98 84q25 0 45.5 -16t35.5 -32t28 -16q8 0 15 4.5
t10.5 9.5t8.5 14t7 12q10 17 25 9q1 0 11.5 -7t14.5 -12q5 -9 -3 -27q-34 -75 -94 -75q-28 0 -61.5 32.5t-45.5 32.5q-24 0 -43 -41q-8 -18 -23 -10z" />
    <glyph glyph-name="odieresis" unicode="&#xf6;" horiz-adv-x="474" 
d="M35 201q0 85 59 147t143 62t143 -62t59 -147q0 -87 -59 -149t-143 -62t-143 62t-59 149zM124 201q0 -52 33 -88.5t80 -36.5t80 36.5t33 88.5q0 50 -33 86t-80 36t-80 -36t-33 -86zM334 567q-23 0 -39.5 16.5t-16.5 39.5q0 24 16.5 40.5t39.5 16.5q24 0 40.5 -16.5
t16.5 -40.5q0 -23 -16.5 -39.5t-40.5 -16.5zM137 567q-23 0 -39.5 16.5t-16.5 39.5q0 24 16.5 40.5t39.5 16.5q24 0 40.5 -16.5t16.5 -40.5q0 -23 -16.5 -39.5t-40.5 -16.5z" />
    <glyph glyph-name="divide" unicode="&#xf7;" horiz-adv-x="518" 
d="M256 471q-26 0 -44.5 18.5t-18.5 44.5t18.5 44.5t44.5 18.5t44.5 -18.5t18.5 -44.5t-18.5 -44.5t-44.5 -18.5zM66 306q-8 0 -13.5 6t-5.5 13v42q0 7 5.5 13t13.5 6h387q7 0 12.5 -5.5t5.5 -13.5v-42q0 -8 -5.5 -13.5t-12.5 -5.5h-387zM193 165q0 26 18.5 44.5t44.5 18.5
t44.5 -18.5t18.5 -44.5t-18.5 -44.5t-44.5 -18.5t-44.5 18.5t-18.5 44.5z" />
    <glyph glyph-name="oslash" unicode="&#xf8;" horiz-adv-x="473" 
d="M59 26q-14 13 -1 26l19 19q-41 57 -41 131q0 85 58.5 146.5t142.5 61.5q71 0 127 -48l24 23q5 6 13 6t13 -6l8 -7q6 -5 6 -13t-6 -13l-25 -25q41 -55 41 -125q0 -87 -59 -149.5t-142 -62.5q-73 0 -127 46l-18 -18q-12 -12 -27 1zM140 136l162 164q-28 23 -65 23
q-47 0 -79.5 -35.5t-32.5 -85.5q0 -39 15 -66zM172 98q28 -22 65 -22q47 0 79.5 37t32.5 89q0 34 -15 61z" />
    <glyph glyph-name="ugrave" unicode="&#xf9;" horiz-adv-x="494" 
d="M60 179v202q0 7 6 13t13 6h57q8 0 13.5 -6t5.5 -13v-205q0 -48 21.5 -74t60.5 -26t67.5 24t31.5 42v239q0 19 22 19h52q8 0 13.5 -6t5.5 -13v-362q0 -7 -5.5 -13t-13.5 -6h-28q-13 0 -18 16l-10 29l-5 -5q-5 -4 -8.5 -7t-11 -9t-14.5 -10t-18 -9t-21.5 -8t-24.5 -5
t-29 -2q-85 0 -123.5 52t-38.5 137zM316 543l-168 72q-14 7 -6 24l23 44q3 6 12.5 6.5t13.5 -3.5l157 -91q12 -6 6 -19l-14 -29q-6 -13 -24 -4z" />
    <glyph glyph-name="uacute" unicode="&#xfa;" horiz-adv-x="494" 
d="M60 179v202q0 7 6 13t13 6h57q8 0 13.5 -6t5.5 -13v-205q0 -48 21.5 -74t60.5 -26t67.5 24t31.5 42v239q0 19 22 19h52q8 0 13.5 -6t5.5 -13v-362q0 -7 -5.5 -13t-13.5 -6h-28q-13 0 -18 16l-10 29l-5 -5q-5 -4 -8.5 -7t-11 -9t-14.5 -10t-18 -9t-21.5 -8t-24.5 -5
t-29 -2q-85 0 -123.5 52t-38.5 137zM181 543q-18 -9 -24 4l-14 29q-6 13 6 19l157 91q4 4 13.5 3.5t12.5 -6.5l23 -44q8 -17 -6 -24z" />
    <glyph glyph-name="ucircumflex" unicode="&#xfb;" horiz-adv-x="494" 
d="M60 179v202q0 7 6 13t13 6h57q8 0 13.5 -6t5.5 -13v-205q0 -48 21.5 -74t60.5 -26t67.5 24t31.5 42v239q0 19 22 19h52q8 0 13.5 -6t5.5 -13v-362q0 -7 -5.5 -13t-13.5 -6h-28q-13 0 -18 16l-10 29l-5 -5q-5 -4 -8.5 -7t-11 -9t-14.5 -10t-18 -9t-21.5 -8t-24.5 -5
t-29 -2q-85 0 -123.5 52t-38.5 137zM126 542l-20 27q-7 10 6 19l125 98q11 9 24 0l125 -98q13 -9 6 -19l-20 -27q-9 -12 -23 -3l-100 65l-100 -65q-14 -8 -23 3z" />
    <glyph glyph-name="udieresis" unicode="&#xfc;" horiz-adv-x="494" 
d="M60 179v202q0 7 6 13t13 6h57q8 0 13.5 -6t5.5 -13v-205q0 -48 21.5 -74t60.5 -26t67.5 24t31.5 42v239q0 19 22 19h52q8 0 13.5 -6t5.5 -13v-362q0 -7 -5.5 -13t-13.5 -6h-28q-13 0 -18 16l-10 29l-5 -5q-5 -4 -8.5 -7t-11 -9t-14.5 -10t-18 -9t-21.5 -8t-24.5 -5
t-29 -2q-85 0 -123.5 52t-38.5 137zM349 567q-23 0 -39.5 16.5t-16.5 39.5q0 24 16.5 40.5t39.5 16.5q24 0 40.5 -16.5t16.5 -40.5q0 -23 -16.5 -39.5t-40.5 -16.5zM152 567q-23 0 -39.5 16.5t-16.5 39.5q0 24 16.5 40.5t39.5 16.5q24 0 40.5 -16.5t16.5 -40.5
q0 -23 -16.5 -39.5t-40.5 -16.5z" />
    <glyph glyph-name="yacute" unicode="&#xfd;" horiz-adv-x="463" 
d="M185 14l-174 360q-5 10 0.5 18t16.5 8h66q12 0 17 -11l124 -266h1l120 266q5 11 21 11h57q12 0 17 -8t0 -18l-306 -662q-6 -12 -17 -12h-60q-11 0 -16.5 8.5t-0.5 18.5zM167 543q-18 -9 -24 4l-14 29q-6 13 6 19l157 91q4 4 13.5 3.5t12.5 -6.5l23 -44q8 -17 -6 -24z" />
    <glyph glyph-name="thorn" unicode="&#xfe;" horiz-adv-x="491" 
d="M162 17v-299q0 -8 -6 -13.5t-13 -5.5h-58q-7 0 -13 5.5t-6 13.5v963q0 7 6 13t13 6h58q7 0 13 -6t6 -13v-305q1 0 5 3t8.5 6t11.5 6.5t15 6.5t17.5 6t21 4.5t23.5 1.5q81 0 136 -62t55 -149q0 -88 -57 -148.5t-140 -60.5q-42 0 -96 27zM162 107q6 -8 31 -18.5t55 -10.5
q50 0 82 35t32 87q0 51 -30.5 87.5t-79.5 36.5q-33 0 -58.5 -18t-31.5 -31v-168z" />
    <glyph glyph-name="ydieresis" unicode="&#xff;" horiz-adv-x="463" 
d="M185 14l-174 360q-5 10 0.5 18t16.5 8h66q12 0 17 -11l124 -266h1l120 266q5 11 21 11h57q12 0 17 -8t0 -18l-306 -662q-6 -12 -17 -12h-60q-11 0 -16.5 8.5t-0.5 18.5zM334 567q-23 0 -39.5 16.5t-16.5 39.5q0 24 16.5 40.5t39.5 16.5q24 0 40.5 -16.5t16.5 -40.5
q0 -23 -16.5 -39.5t-40.5 -16.5zM137 567q-23 0 -39.5 16.5t-16.5 39.5q0 24 16.5 40.5t39.5 16.5q24 0 40.5 -16.5t16.5 -40.5q0 -23 -16.5 -39.5t-40.5 -16.5z" />
    <glyph glyph-name="Amacron" unicode="&#x100;" horiz-adv-x="662" 
d="M20 0q-11 0 -16.5 8t-0.5 18l307 673q6 11 17 11h10q11 0 17 -11l305 -673q5 -10 -0.5 -18t-16.5 -8h-63q-16 0 -23 15l-62 137h-327q-10 -23 -30.5 -68.5t-30.5 -68.5q-6 -15 -23 -15h-63zM206 238h250l-123 274h-5zM202 814q-8 0 -13.5 5t-5.5 13v28q0 19 19 19h256
q19 0 19 -19v-28q0 -8 -5.5 -13t-13.5 -5h-256z" />
    <glyph glyph-name="amacron" unicode="&#x101;" horiz-adv-x="422" 
d="M36 124q0 56 42.5 92.5t117.5 36.5q19 0 38.5 -3t29.5 -6l11 -3q1 49 -12 68.5t-50 19.5q-49 0 -112 -18q-17 -4 -22 16l-8 37q-4 17 13 23q54 23 138 23q46 0 75.5 -13t43 -39.5t17.5 -54.5t4 -71v-213q0 -7 -6 -13t-13 -6h-28q-11 0 -17 14l-10 27q-53 -51 -123 -51
q-57 0 -93 36.5t-36 97.5zM123 125q0 -28 17 -46t44 -18q28 0 54 16.5t36 33.5v64q-24 16 -70 16q-36 0 -58.5 -18t-22.5 -48zM88 576q-8 0 -13.5 5t-5.5 13v28q0 19 19 19h256q19 0 19 -19v-28q0 -8 -5.5 -13t-13.5 -5h-256z" />
    <glyph glyph-name="Abreve" unicode="&#x102;" horiz-adv-x="662" 
d="M20 0q-11 0 -16.5 8t-0.5 18l307 673q6 11 17 11h10q11 0 17 -11l305 -673q5 -10 -0.5 -18t-16.5 -8h-63q-16 0 -23 15l-62 137h-327q-10 -23 -30.5 -68.5t-30.5 -68.5q-6 -15 -23 -15h-63zM206 238h250l-123 274h-5zM331 768q-53 0 -91.5 33t-46.5 83q-2 9 2.5 15
t13.5 6h29q14 0 18 -16q19 -58 75 -58q24 0 44 17t28 41q5 16 18 16h31q9 0 13.5 -6t2.5 -15q-8 -50 -46.5 -83t-90.5 -33z" />
    <glyph glyph-name="abreve" unicode="&#x103;" horiz-adv-x="422" 
d="M36 124q0 56 42.5 92.5t117.5 36.5q19 0 38.5 -3t29.5 -6l11 -3q1 49 -12 68.5t-50 19.5q-49 0 -112 -18q-17 -4 -22 16l-8 37q-4 17 13 23q54 23 138 23q46 0 75.5 -13t43 -39.5t17.5 -54.5t4 -71v-213q0 -7 -6 -13t-13 -6h-28q-11 0 -17 14l-10 27q-53 -51 -123 -51
q-57 0 -93 36.5t-36 97.5zM123 125q0 -28 17 -46t44 -18q28 0 54 16.5t36 33.5v64q-24 16 -70 16q-36 0 -58.5 -18t-22.5 -48zM213 529q-53 0 -91.5 33t-46.5 83q-3 21 16 21h29q14 0 18 -15q19 -59 75 -59q24 0 44 17t28 42q5 15 18 15h31q20 0 16 -21q-8 -50 -46.5 -83
t-90.5 -33z" />
    <glyph glyph-name="Aogonek" unicode="&#x104;" horiz-adv-x="662" 
d="M20 0q-11 0 -16.5 8t-0.5 18l307 673q6 11 17 11h10q11 0 17 -11l305 -673q5 -10 -0.5 -18t-16.5 -8h-38q-47 -47 -47 -98q0 -26 17.5 -43t44.5 -17q21 0 50 12q8 3 13.5 -1.5t5.5 -13.5v-28q0 -10 -14 -18q-28 -12 -68 -12q-50 0 -83 27t-33 79q0 74 67 124l-63 141
h-327l-61 -137q-6 -15 -23 -15h-63zM206 238h250l-123 274h-5z" />
    <glyph glyph-name="aogonek" unicode="&#x105;" horiz-adv-x="423" 
d="M36 124q0 56 42.5 92.5t117.5 36.5q19 0 38.5 -3t29.5 -6l11 -3q1 50 -12 72t-50 22q-42 0 -112 -20q-17 -4 -22 16l-8 33q-4 17 13 23q54 23 138 23q46 0 75.5 -13t43 -39.5t17.5 -54.5t4 -71v-213q0 -7 -6 -13t-13 -6q-48 -45 -48 -98q0 -26 17.5 -43t44.5 -17
q21 0 50 12q8 3 13.5 -1.5t5.5 -13.5v-28q0 -10 -14 -18q-28 -12 -68 -12q-50 0 -83 27t-33 79q0 35 17.5 66t34.5 45l18 14l-10 29q-53 -51 -123 -51q-57 0 -93 36.5t-36 97.5zM123 125q0 -28 17 -46t44 -18q28 0 54 16.5t36 33.5v64q-24 16 -70 16q-36 0 -58.5 -18
t-22.5 -48z" />
    <glyph glyph-name="Cacute" unicode="&#x106;" horiz-adv-x="696" 
d="M46 349q0 150 105.5 255.5t255.5 105.5q135 0 242 -93q15 -14 1 -28l-44 -45q-11 -14 -25 0q-77 67 -173 67q-106 0 -178.5 -77t-72.5 -183t73 -182.5t179 -76.5q86 0 172 66q13 10 24 1l46 -45q6 -6 5.5 -13.5t-6.5 -13.5q-100 -97 -243 -97q-150 0 -255.5 104.5
t-105.5 254.5zM336 774q-18 -8 -24 5l-14 28q-6 12 6 19l157 91q4 4 13.5 3.5t12.5 -6.5l23 -44q10 -16 -6 -24z" />
    <glyph glyph-name="cacute" unicode="&#x107;" horiz-adv-x="434" 
d="M35 199q0 87 63 149t147 62q88 0 145 -71q12 -16 -4 -28l-33 -30q-11 -10 -27 4q-34 38 -80 38q-49 0 -82.5 -36t-33.5 -87q0 -52 33 -88t82 -36q11 0 20 1t17.5 5t13.5 5.5t13 8t10 8t11 10.5l8 8q13 13 27 2l27 -22q17 -14 7 -28q-53 -84 -155 -84q-85 0 -147 60
t-62 149zM177 543q-18 -9 -24 4l-14 29q-6 13 6 19l157 91q4 4 13.5 3.5t12.5 -6.5l23 -44q8 -17 -6 -24z" />
    <glyph glyph-name="Ccircumflex" unicode="&#x108;" horiz-adv-x="696" 
d="M46 349q0 150 105.5 255.5t255.5 105.5q135 0 242 -93q15 -14 1 -28l-44 -45q-11 -14 -25 0q-77 67 -173 67q-106 0 -178.5 -77t-72.5 -183t73 -182.5t179 -76.5q86 0 172 66q13 10 24 1l46 -45q6 -6 5.5 -13.5t-6.5 -13.5q-100 -97 -243 -97q-150 0 -255.5 104.5
t-105.5 254.5zM306 769q-14 -8 -23 3l-20 27q-7 10 6 19l125 98q11 9 24 0l125 -98q13 -9 6 -19l-20 -27q-9 -12 -23 -3l-100 65z" />
    <glyph glyph-name="ccircumflex" unicode="&#x109;" horiz-adv-x="434" 
d="M35 199q0 87 63 149t147 62q88 0 145 -71q12 -16 -4 -28l-33 -30q-11 -10 -27 4q-34 38 -80 38q-49 0 -82.5 -36t-33.5 -87q0 -52 33 -88t82 -36q11 0 20 1t17.5 5t13.5 5.5t13 8t10 8t11 10.5l8 8q13 13 27 2l27 -22q17 -14 7 -28q-53 -84 -155 -84q-85 0 -147 60
t-62 149zM122 542l-20 27q-7 10 6 19l125 98q11 9 24 0l125 -98q13 -9 6 -19l-20 -27q-9 -12 -23 -3l-100 65l-100 -65q-14 -8 -23 3z" />
    <glyph glyph-name="Cdotaccent" unicode="&#x10a;" horiz-adv-x="696" 
d="M46 349q0 150 105.5 255.5t255.5 105.5q135 0 242 -93q15 -14 1 -28l-44 -45q-11 -14 -25 0q-77 67 -173 67q-106 0 -178.5 -77t-72.5 -183t73 -182.5t179 -76.5q86 0 172 66q13 10 24 1l46 -45q6 -6 5.5 -13.5t-6.5 -13.5q-100 -97 -243 -97q-150 0 -255.5 104.5
t-105.5 254.5zM407 788q-26 0 -45 19t-19 46t19 45.5t45 18.5q27 0 46 -18.5t19 -45.5t-19 -46t-46 -19z" />
    <glyph glyph-name="cdotaccent" unicode="&#x10b;" horiz-adv-x="434" 
d="M35 199q0 87 63 149t147 62q88 0 145 -71q12 -16 -4 -28l-33 -30q-11 -10 -27 4q-34 38 -80 38q-49 0 -82.5 -36t-33.5 -87q0 -52 33 -88t82 -36q11 0 20 1t17.5 5t13.5 5.5t13 8t10 8t11 10.5l8 8q13 13 27 2l27 -22q17 -14 7 -28q-53 -84 -155 -84q-85 0 -147 60
t-62 149zM245 551q-26 0 -45 19t-19 45q0 27 19 46t45 19q27 0 46 -19t19 -46q0 -26 -19 -45t-46 -19z" />
    <glyph glyph-name="Ccaron" unicode="&#x10c;" horiz-adv-x="696" 
d="M46 349q0 150 105.5 255.5t255.5 105.5q135 0 242 -93q15 -14 1 -28l-44 -45q-11 -14 -25 0q-77 67 -173 67q-106 0 -178.5 -77t-72.5 -183t73 -182.5t179 -76.5q86 0 172 66q13 10 24 1l46 -45q6 -6 5.5 -13.5t-6.5 -13.5q-100 -97 -243 -97q-150 0 -255.5 104.5
t-105.5 254.5zM394 768l-125 98q-13 9 -6 19l20 27q9 11 23 3l100 -65l100 65q14 9 23 -3l20 -27q7 -10 -6 -19l-125 -98q-13 -9 -24 0z" />
    <glyph glyph-name="ccaron" unicode="&#x10d;" horiz-adv-x="434" 
d="M35 199q0 87 63 149t147 62q88 0 145 -71q12 -16 -4 -28l-33 -30q-11 -10 -27 4q-34 38 -80 38q-49 0 -82.5 -36t-33.5 -87q0 -52 33 -88t82 -36q11 0 20 1t17.5 5t13.5 5.5t13 8t10 8t11 10.5l8 8q13 13 27 2l27 -22q17 -14 7 -28q-53 -84 -155 -84q-85 0 -147 60
t-62 149zM233 535l-125 98q-13 9 -6 19l20 27q9 11 23 3l100 -65l100 65q14 9 23 -3l20 -27q7 -10 -6 -19l-125 -98q-13 -9 -24 0z" />
    <glyph glyph-name="Dcaron" unicode="&#x10e;" horiz-adv-x="743" 
d="M97 19v662q0 8 5.5 13.5t12.5 5.5h230q145 0 248 -102.5t103 -246.5q0 -145 -103 -248t-248 -103h-230q-7 0 -12.5 5.5t-5.5 13.5zM199 95h132q110 0 182 72.5t72 183.5q0 110 -72 182t-182 72h-132v-510zM323 768l-125 98q-13 9 -6 19l20 27q9 11 23 3l100 -65l100 65
q14 9 23 -3l20 -27q7 -10 -6 -19l-125 -98q-13 -9 -24 0z" />
    <glyph glyph-name="dcaron" unicode="&#x10f;" horiz-adv-x="520" 
d="M36 200q0 88 57 149t140 61q18 0 35.5 -3t27.5 -6.5t22 -8.5l11 -4v293q0 7 5.5 13t13.5 6h58q8 0 13.5 -6t5.5 -13v-662q0 -7 -5.5 -13t-13.5 -6h-30q-13 0 -18 17l-8 29q-5 -6 -15.5 -15.5t-43.5 -25t-68 -15.5q-79 0 -133 61.5t-54 148.5zM129 200q0 -52 29.5 -88
t76.5 -36q28 0 50.5 13.5t31.5 25t13 21.5v163q-35 24 -87 24q-50 0 -82 -35.5t-32 -87.5zM551 428l-14 14q-10 10 4 24q65 52 65 124q-6 -3 -21 -3q-26 0 -44 18t-18 43q0 26 18.5 44t45.5 18q31 0 53 -23t22 -75q0 -60 -27.5 -107t-59.5 -76q-13 -12 -24 -1z" />
    <glyph glyph-name="Dcroat" unicode="&#x110;" horiz-adv-x="747" 
d="M101 19v303h-29q-7 0 -12.5 5.5t-5.5 13.5v10q0 8 5.5 13.5t12.5 5.5h29v311q0 8 5.5 13.5t12.5 5.5h230q145 0 248 -102.5t103 -246.5q0 -145 -103 -248t-248 -103h-230q-7 0 -12.5 5.5t-5.5 13.5zM203 95h132q110 0 182 72.5t72 183.5q0 110 -72 182t-182 72h-132v-235
h188q8 0 13.5 -5.5t5.5 -13.5v-11q0 -8 -5.5 -13t-13.5 -5h-188v-227z" />
    <glyph glyph-name="dcroat" unicode="&#x111;" 
d="M36 200q0 88 57 149t140 61q18 0 35.5 -3t27.5 -6.5t22 -8.5l11 -4v146h-135q-8 0 -13.5 5t-5.5 13v11q0 8 5.5 13.5t13.5 5.5h135v99q0 7 5.5 13t13.5 6h58q8 0 13.5 -6t5.5 -13v-99h33q7 0 12.5 -5.5t5.5 -13.5v-10q0 -8 -5.5 -13.5t-12.5 -5.5h-33v-515q0 -7 -5.5 -13
t-13.5 -6h-30q-13 0 -18 17l-8 29q-5 -6 -15.5 -15.5t-43.5 -25t-68 -15.5q-79 0 -133 61.5t-54 148.5zM129 200q0 -52 29.5 -88.5t76.5 -36.5q28 0 50.5 14t31.5 25.5t13 21.5v162q-35 23 -87 23q-50 0 -82 -34.5t-32 -86.5z" />
    <glyph glyph-name="Emacron" unicode="&#x112;" horiz-adv-x="589" 
d="M97 19v662q0 8 5.5 13.5t13.5 5.5h400q8 0 13.5 -5.5t5.5 -13.5v-56q0 -8 -5.5 -13.5t-13.5 -5.5h-316v-204h267q7 0 13 -6t6 -13v-56q0 -8 -5.5 -13.5t-13.5 -5.5h-267v-215h316q8 0 13.5 -5.5t5.5 -13.5v-55q0 -8 -5.5 -13.5t-13.5 -5.5h-400q-8 0 -13.5 5.5t-5.5 13.5
zM186 814q-8 0 -13.5 5t-5.5 13v28q0 19 19 19h256q19 0 19 -19v-28q0 -8 -5.5 -13t-13.5 -5h-256z" />
    <glyph glyph-name="emacron" unicode="&#x113;" horiz-adv-x="451" 
d="M36 200q0 87 56 148.5t144 61.5q78 0 131 -52.5t53 -132.5q0 -13 -2 -27q-2 -17 -18 -17h-272q2 -42 35 -74.5t80 -32.5q44 0 89 29q19 11 27 1l28 -38q12 -14 -2 -26q-58 -50 -148 -50q-89 0 -145 61t-56 149zM133 244h194q-2 36 -29 62.5t-63 26.5q-40 0 -68.5 -25.5
t-33.5 -63.5zM108 576q-8 0 -13.5 5t-5.5 13v28q0 19 19 19h256q19 0 19 -19v-28q0 -8 -5.5 -13t-13.5 -5h-256z" />
    <glyph glyph-name="Ebreve" unicode="&#x114;" horiz-adv-x="589" 
d="M97 19v662q0 8 5.5 13.5t13.5 5.5h400q8 0 13.5 -5.5t5.5 -13.5v-56q0 -8 -5.5 -13.5t-13.5 -5.5h-316v-204h267q7 0 13 -6t6 -13v-56q0 -8 -5.5 -13.5t-13.5 -5.5h-267v-215h316q8 0 13.5 -5.5t5.5 -13.5v-55q0 -8 -5.5 -13.5t-13.5 -5.5h-400q-8 0 -13.5 5.5t-5.5 13.5
zM314 768q-53 0 -91.5 33t-46.5 83q-2 9 2.5 15t13.5 6h29q14 0 18 -16q19 -58 75 -58q24 0 44 17t28 41q5 16 18 16h31q9 0 13.5 -6t2.5 -15q-8 -50 -46.5 -83t-90.5 -33z" />
    <glyph glyph-name="ebreve" unicode="&#x115;" horiz-adv-x="451" 
d="M36 200q0 87 56 148.5t144 61.5q78 0 131 -52.5t53 -132.5q0 -13 -2 -27q-2 -17 -18 -17h-272q2 -42 35 -74.5t80 -32.5q44 0 89 29q19 11 27 1l28 -38q12 -14 -2 -26q-58 -50 -148 -50q-89 0 -145 61t-56 149zM133 244h194q-2 36 -29 62.5t-63 26.5q-40 0 -68.5 -25.5
t-33.5 -63.5zM237 529q-53 0 -91.5 33t-46.5 83q-3 21 16 21h29q14 0 18 -15q19 -59 75 -59q24 0 44 17t28 42q5 15 18 15h31q20 0 16 -21q-8 -50 -46.5 -83t-90.5 -33z" />
    <glyph glyph-name="Edotaccent" unicode="&#x116;" horiz-adv-x="589" 
d="M97 19v662q0 8 5.5 13.5t13.5 5.5h400q8 0 13.5 -5.5t5.5 -13.5v-56q0 -8 -5.5 -13.5t-13.5 -5.5h-316v-204h267q7 0 13 -6t6 -13v-56q0 -8 -5.5 -13.5t-13.5 -5.5h-267v-215h316q8 0 13.5 -5.5t5.5 -13.5v-55q0 -8 -5.5 -13.5t-13.5 -5.5h-400q-8 0 -13.5 5.5t-5.5 13.5
zM318 788q-26 0 -45 19t-19 46t19 45.5t45 18.5q27 0 46 -18.5t19 -45.5t-19 -46t-46 -19z" />
    <glyph glyph-name="edotaccent" unicode="&#x117;" horiz-adv-x="451" 
d="M36 200q0 87 56 148.5t144 61.5q78 0 131 -52.5t53 -132.5q0 -13 -2 -27q-2 -17 -18 -17h-272q2 -42 35 -74.5t80 -32.5q44 0 89 29q19 11 27 1l28 -38q12 -14 -2 -26q-58 -50 -148 -50q-89 0 -145 61t-56 149zM133 244h194q-2 36 -29 62.5t-63 26.5q-40 0 -68.5 -25.5
t-33.5 -63.5zM237 551q-26 0 -45 19t-19 45q0 27 19 46t45 19q27 0 46 -19t19 -46q0 -26 -19 -45t-46 -19z" />
    <glyph glyph-name="Eogonek" unicode="&#x118;" horiz-adv-x="589" 
d="M97 19v662q0 8 5.5 13.5t13.5 5.5h400q8 0 13.5 -5.5t5.5 -13.5v-56q0 -8 -5.5 -13.5t-13.5 -5.5h-316v-204h267q7 0 13 -6t6 -13v-56q0 -8 -5.5 -13.5t-13.5 -5.5h-267v-215h316q8 0 13.5 -5.5t5.5 -13.5v-55q0 -8 -5.5 -13.5t-13.5 -5.5q-47 -47 -47 -98
q0 -26 17.5 -43t44.5 -17q21 0 50 12q8 3 13.5 -1.5t5.5 -13.5v-28q0 -10 -14 -18q-28 -12 -68 -12q-50 0 -83 27t-33 79q0 66 55 113h-341q-8 0 -13.5 5.5t-5.5 13.5z" />
    <glyph glyph-name="eogonek" unicode="&#x119;" horiz-adv-x="452" 
d="M157 -113q0 57 47 106q-75 11 -121 69.5t-46 137.5q0 87 56 148.5t144 61.5q78 0 131 -52.5t53 -132.5q0 -13 -2 -27q-2 -17 -18 -17h-272q2 -42 35 -75.5t80 -33.5q45 0 88 28q20 11 27 1q6 -7 15.5 -19t13.5 -16q12 -14 -2 -26q-50 -42 -123 -49q-39 -41 -39 -89
q0 -26 17.5 -43t44.5 -17q21 0 50 12q8 3 13.5 -1.5t5.5 -13.5v-28q0 -10 -14 -18q-28 -12 -68 -12q-50 0 -83 27t-33 79zM134 244h194q-2 36 -29 62.5t-63 26.5q-40 0 -68.5 -25.5t-33.5 -63.5z" />
    <glyph glyph-name="Ecaron" unicode="&#x11a;" horiz-adv-x="589" 
d="M97 19v662q0 8 5.5 13.5t13.5 5.5h400q8 0 13.5 -5.5t5.5 -13.5v-56q0 -8 -5.5 -13.5t-13.5 -5.5h-316v-204h267q7 0 13 -6t6 -13v-56q0 -8 -5.5 -13.5t-13.5 -5.5h-267v-215h316q8 0 13.5 -5.5t5.5 -13.5v-55q0 -8 -5.5 -13.5t-13.5 -5.5h-400q-8 0 -13.5 5.5t-5.5 13.5
zM299 768l-125 98q-13 9 -6 19l20 27q9 11 23 3l100 -65l100 65q14 9 23 -3l20 -27q7 -10 -6 -19l-125 -98q-13 -9 -24 0z" />
    <glyph glyph-name="ecaron" unicode="&#x11b;" horiz-adv-x="451" 
d="M36 200q0 87 56 148.5t144 61.5q78 0 131 -52.5t53 -132.5q0 -13 -2 -27q-2 -17 -18 -17h-272q2 -42 35 -74.5t80 -32.5q44 0 89 29q19 11 27 1l28 -38q12 -14 -2 -26q-58 -50 -148 -50q-89 0 -145 61t-56 149zM133 244h194q-2 36 -29 62.5t-63 26.5q-40 0 -68.5 -25.5
t-33.5 -63.5zM223 535l-125 98q-13 9 -6 19l20 27q9 11 23 3l100 -65l100 65q14 9 23 -3l20 -27q7 -10 -6 -19l-125 -98q-13 -9 -24 0z" />
    <glyph glyph-name="Gcircumflex" unicode="&#x11c;" horiz-adv-x="722" 
d="M46 349q0 150 105.5 255.5t254.5 105.5q134 0 243 -93q15 -15 1 -28q-8 -8 -23 -23.5t-22 -23.5q-11 -12 -26 1q-78 68 -170 68q-105 0 -178 -77t-73 -183t73 -182.5t178 -76.5q17 0 33.5 1.5t30.5 4.5t26.5 6t23 7t17 6.5t12.5 5.5t7 3v112h-98q-8 0 -13.5 5t-5.5 13v58
q0 19 19 19h182q7 0 12.5 -5.5t5.5 -13.5q0 -40 0.5 -121t0.5 -121q0 -10 -8 -16q-12 -7 -33 -18t-86 -29.5t-129 -18.5q-150 0 -255 104.5t-105 254.5zM305 769q-14 -8 -23 3l-20 27q-7 10 6 19l125 98q11 9 24 0l125 -98q13 -9 6 -19l-20 -27q-9 -12 -23 -3l-100 65z" />
    <glyph glyph-name="gcircumflex" unicode="&#x11d;" horiz-adv-x="460" 
d="M25 24q0 22 7.5 41.5t18 32t20.5 22t17 14.5l8 4q-31 37 -31 97q0 72 48.5 123.5t123.5 51.5h175q19 0 19 -19v-25q0 -15 -11 -17l-55 -15q5 -4 12 -11t19 -35t12 -61q0 -66 -47.5 -114.5t-122.5 -48.5q-22 0 -42 4t-31.5 8t-13.5 4q-9 0 -25 -14t-16 -35q0 -18 13 -29.5
t35 -11.5h136q68 0 112.5 -35.5t44.5 -98.5q0 -69 -58.5 -117.5t-154.5 -48.5q-98 0 -148 41t-50 96q0 59 59 94v3q-25 7 -49.5 31.5t-24.5 68.5zM239 141q37 0 60.5 25.5t23.5 66.5t-23.5 66.5t-60.5 25.5q-38 0 -63 -26t-25 -66t25 -66t63 -26zM133 -157q0 -31 29 -51
t75 -20q47 0 80.5 22t33.5 57q0 11 -4.5 22.5t-22.5 23t-48 11.5q-59 0 -88 -2q-55 -18 -55 -63zM137 542l-20 27q-7 10 6 19l125 98q11 9 24 0l125 -98q13 -9 6 -19l-20 -27q-9 -12 -23 -3l-100 65l-100 -65q-14 -8 -23 3z" />
    <glyph glyph-name="Gbreve" unicode="&#x11e;" horiz-adv-x="722" 
d="M46 349q0 150 105.5 255.5t254.5 105.5q134 0 243 -93q15 -15 1 -28q-8 -8 -23 -23.5t-22 -23.5q-11 -12 -26 1q-78 68 -170 68q-105 0 -178 -77t-73 -183t73 -182.5t178 -76.5q17 0 33.5 1.5t30.5 4.5t26.5 6t23 7t17 6.5t12.5 5.5t7 3v112h-98q-8 0 -13.5 5t-5.5 13v58
q0 19 19 19h182q7 0 12.5 -5.5t5.5 -13.5q0 -40 0.5 -121t0.5 -121q0 -10 -8 -16q-12 -7 -33 -18t-86 -29.5t-129 -18.5q-150 0 -255 104.5t-105 254.5zM407 768q-53 0 -91.5 33t-46.5 83q-2 9 2.5 15t13.5 6h29q14 0 18 -16q19 -58 75 -58q24 0 44 17t28 41q5 16 18 16h31
q9 0 13.5 -6t2.5 -15q-8 -50 -46.5 -83t-90.5 -33z" />
    <glyph glyph-name="gbreve" unicode="&#x11f;" horiz-adv-x="460" 
d="M25 24q0 22 7.5 41.5t18 32t20.5 22t17 14.5l8 4q-31 37 -31 97q0 72 48.5 123.5t123.5 51.5h175q19 0 19 -19v-25q0 -15 -11 -17l-55 -15q5 -4 12 -11t19 -35t12 -61q0 -66 -47.5 -114.5t-122.5 -48.5q-22 0 -42 4t-31.5 8t-13.5 4q-9 0 -25 -14t-16 -35q0 -18 13 -29.5
t35 -11.5h136q68 0 112.5 -35.5t44.5 -98.5q0 -69 -58.5 -117.5t-154.5 -48.5q-98 0 -148 41t-50 96q0 59 59 94v3q-25 7 -49.5 31.5t-24.5 68.5zM239 141q37 0 60.5 25.5t23.5 66.5t-23.5 66.5t-60.5 25.5q-38 0 -63 -26t-25 -66t25 -66t63 -26zM133 -157q0 -31 29 -51
t75 -20q47 0 80.5 22t33.5 57q0 11 -4.5 22.5t-22.5 23t-48 11.5q-59 0 -88 -2q-55 -18 -55 -63zM260 529q-53 0 -91.5 33t-46.5 83q-4 21 16 21h29q14 0 18 -15q19 -59 75 -59q24 0 44 17t28 42q5 15 18 15h31q19 0 16 -21q-8 -50 -46.5 -83t-90.5 -33z" />
    <glyph glyph-name="Gdotaccent" unicode="&#x120;" horiz-adv-x="722" 
d="M46 349q0 150 105.5 255.5t254.5 105.5q134 0 243 -93q15 -15 1 -28q-8 -8 -23 -23.5t-22 -23.5q-11 -12 -26 1q-78 68 -170 68q-105 0 -178 -77t-73 -183t73 -182.5t178 -76.5q17 0 33.5 1.5t30.5 4.5t26.5 6t23 7t17 6.5t12.5 5.5t7 3v112h-98q-8 0 -13.5 5t-5.5 13v58
q0 19 19 19h182q7 0 12.5 -5.5t5.5 -13.5q0 -40 0.5 -121t0.5 -121q0 -10 -8 -16q-12 -7 -33 -18t-86 -29.5t-129 -18.5q-150 0 -255 104.5t-105 254.5zM406 788q-26 0 -45 19t-19 46t19 45.5t45 18.5q27 0 46 -18.5t19 -45.5t-19 -46t-46 -19z" />
    <glyph glyph-name="gdotaccent" unicode="&#x121;" horiz-adv-x="460" 
d="M25 24q0 22 7.5 41.5t18 32t20.5 22t17 14.5l8 4q-31 37 -31 97q0 72 48.5 123.5t123.5 51.5h175q19 0 19 -19v-25q0 -15 -11 -17l-55 -15q5 -4 12 -11t19 -35t12 -61q0 -66 -47.5 -114.5t-122.5 -48.5q-22 0 -42 4t-31.5 8t-13.5 4q-9 0 -25 -14t-16 -35q0 -18 13 -29.5
t35 -11.5h136q68 0 112.5 -35.5t44.5 -98.5q0 -69 -58.5 -117.5t-154.5 -48.5q-98 0 -148 41t-50 96q0 59 59 94v3q-25 7 -49.5 31.5t-24.5 68.5zM239 141q37 0 60.5 25.5t23.5 66.5t-23.5 66.5t-60.5 25.5q-38 0 -63 -26t-25 -66t25 -66t63 -26zM133 -157q0 -31 29 -51
t75 -20q47 0 80.5 22t33.5 57q0 11 -4.5 22.5t-22.5 23t-48 11.5q-59 0 -88 -2q-55 -18 -55 -63zM259 551q-26 0 -45 19t-19 45q0 27 19 46t45 19q27 0 46 -19t19 -46q0 -26 -19 -45t-46 -19z" />
    <glyph glyph-name="Gcommaaccent" unicode="&#x122;" horiz-adv-x="722" 
d="M46 349q0 150 105.5 255.5t254.5 105.5q134 0 243 -93q15 -15 1 -28q-8 -8 -23 -23.5t-22 -23.5q-11 -12 -26 1q-78 68 -170 68q-105 0 -178 -77t-73 -183t73 -182.5t178 -76.5q17 0 33.5 1.5t30.5 4.5t26.5 6t23 7t17 6.5t12.5 5.5t7 3v112h-98q-8 0 -13.5 5t-5.5 13v58
q0 19 19 19h182q7 0 12.5 -5.5t5.5 -13.5q0 -40 0.5 -121t0.5 -121q0 -10 -8 -16q-12 -7 -33 -18t-86 -29.5t-129 -18.5q-150 0 -255 104.5t-105 254.5zM408 -92q30 0 52 -22.5t22 -75.5q0 -60 -27.5 -107t-59.5 -76q-14 -12 -23 -1l-15 14q-9 11 5 24q64 51 65 124
q-9 -3 -22 -3q-25 0 -43.5 18t-18.5 43q0 26 19 44t46 18z" />
    <glyph glyph-name="gcommaaccent" unicode="&#x123;" horiz-adv-x="460" 
d="M255 529q-30 0 -52 22.5t-22 75.5q0 60 27.5 107t59.5 76q14 12 23 1l15 -14q9 -11 -5 -24q-64 -51 -65 -124q9 3 22 3q25 0 43.5 -18t18.5 -43q0 -26 -19 -44t-46 -18zM25 24q0 22 7.5 41.5t18 32t20.5 22t17 14.5l8 4q-31 37 -31 97q0 72 48.5 123.5t123.5 51.5h175
q19 0 19 -19v-25q0 -15 -11 -17l-55 -15q5 -4 12 -11t19 -35t12 -61q0 -66 -47.5 -114.5t-122.5 -48.5q-22 0 -42 4t-31.5 8t-13.5 4q-9 0 -25 -14t-16 -35q0 -18 13 -29.5t35 -11.5h136q68 0 112.5 -35.5t44.5 -98.5q0 -69 -58.5 -117.5t-154.5 -48.5q-98 0 -148 41t-50 96
q0 59 59 94v3q-25 7 -49.5 31.5t-24.5 68.5zM239 141q37 0 60.5 25.5t23.5 66.5t-23.5 66.5t-60.5 25.5q-38 0 -63 -26t-25 -66t25 -66t63 -26zM133 -157q0 -31 29 -51t75 -20q47 0 80.5 22t33.5 57q0 11 -4.5 22.5t-22.5 23t-48 11.5q-59 0 -88 -2q-55 -18 -55 -63z" />
    <glyph glyph-name="Hcircumflex" unicode="&#x124;" horiz-adv-x="768" 
d="M97 19v662q0 7 5.5 13t13.5 6h66q8 0 13.5 -5.5t5.5 -13.5v-279h366v279q0 8 5.5 13.5t13.5 5.5h66q8 0 13.5 -6t5.5 -13v-662q0 -7 -5.5 -13t-13.5 -6h-66q-8 0 -13.5 5.5t-5.5 13.5v289h-366v-289q0 -8 -5.5 -13.5t-13.5 -5.5h-66q-8 0 -13.5 6t-5.5 13zM289 769
q-14 -8 -23 3l-20 27q-7 10 6 19l125 98q11 9 24 0l125 -98q13 -9 6 -19l-20 -27q-9 -12 -23 -3l-100 65z" />
    <glyph glyph-name="hcircumflex" unicode="&#x125;" horiz-adv-x="508" 
d="M65 19v662q0 7 5.5 13t13.5 6h58q8 0 13.5 -6t5.5 -13v-314q61 43 120 43q82 0 124.5 -52.5t42.5 -137.5v-201q0 -7 -6 -13t-13 -6h-56q-8 0 -13.5 5.5t-5.5 13.5v203q0 48 -23 74.5t-62 26.5q-40 0 -71.5 -22.5t-36.5 -40.5v-241q0 -19 -20 -19h-57q-8 0 -13.5 6
t-5.5 13zM-11 759l-20 27q-7 10 6 19l125 98q11 9 24 0l125 -98q13 -9 6 -19l-20 -27q-9 -12 -23 -3l-100 65l-100 -65q-14 -8 -23 3z" />
    <glyph glyph-name="Hbar" unicode="&#x126;" horiz-adv-x="768" 
d="M97 19v515h-24q-7 0 -12.5 5.5t-5.5 13.5v10q0 8 5.5 13.5t12.5 5.5h24v99q0 7 5.5 13t13.5 6h66q8 0 13.5 -5.5t5.5 -13.5v-99h366v99q0 8 5.5 13.5t13.5 5.5h66q8 0 13.5 -6t5.5 -13v-99h23q8 0 13.5 -5.5t5.5 -13.5v-11q0 -8 -5.5 -13t-13.5 -5h-23v-515
q0 -7 -5.5 -13t-13.5 -6h-66q-8 0 -13.5 5.5t-5.5 13.5v289h-366v-289q0 -8 -5.5 -13.5t-13.5 -5.5h-66q-8 0 -13.5 6t-5.5 13zM201 402h366v132h-366v-132z" />
    <glyph glyph-name="hbar" unicode="&#x127;" horiz-adv-x="508" 
d="M65 19v515h-32q-7 0 -12.5 5.5t-5.5 13.5v10q0 8 5.5 13.5t12.5 5.5h32v99q0 7 5.5 13t13.5 6h58q8 0 13.5 -6t5.5 -13v-99h136q8 0 13.5 -5.5t5.5 -13.5v-11q0 -8 -5.5 -13t-13.5 -5h-136v-168l13 8q14 9 27 15.5t35.5 13t44.5 6.5q167 0 167 -211v-179q0 -7 -6 -13
t-13 -6h-56q-8 0 -13.5 5.5t-5.5 13.5v201q0 48 -23 74.5t-62 26.5q-41 0 -74.5 -22t-33.5 -38v-242q0 -19 -38 -19h-39q-8 0 -13.5 6t-5.5 13z" />
    <glyph glyph-name="Itilde" unicode="&#x128;" horiz-adv-x="298" 
d="M97 19v662q0 7 5.5 13t13.5 6h66q8 0 13.5 -6t5.5 -13v-662q0 -7 -5.5 -13t-13.5 -6h-66q-8 0 -13.5 6t-5.5 13zM27 792l-23 15q-13 8 -6 23q42 84 98 84q25 0 45.5 -16t35.5 -32t28 -16q8 0 15 4.5t10.5 9.5t8.5 14t7 12q10 17 25 9q1 0 11.5 -7t14.5 -12q5 -9 -3 -27
q-34 -75 -94 -75q-28 0 -61.5 32.5t-45.5 32.5q-24 0 -43 -41q-8 -18 -23 -10z" />
    <glyph glyph-name="itilde" unicode="&#x129;" horiz-adv-x="225" 
d="M-9 568l-23 15q-13 8 -6 23q42 84 98 84q25 0 45.5 -16t35.5 -32t28 -16q8 0 15 4.5t10.5 9.5t8.5 14t7 12q10 17 25 9q1 0 11.5 -7t14.5 -12q5 -9 -3 -27q-34 -75 -94 -75q-28 0 -61.5 32.5t-45.5 32.5q-24 0 -43 -41q-8 -18 -23 -10zM65 19v362q0 7 5.5 13t13.5 6h57
q7 0 13 -6t6 -13v-362q0 -7 -6 -13t-13 -6h-57q-8 0 -13.5 6t-5.5 13z" />
    <glyph glyph-name="Imacron" unicode="&#x12a;" horiz-adv-x="298" 
d="M97 19v662q0 7 5.5 13t13.5 6h66q8 0 13.5 -6t5.5 -13v-662q0 -7 -5.5 -13t-13.5 -6h-66q-8 0 -13.5 6t-5.5 13zM22 814q-8 0 -13.5 5t-5.5 13v28q0 19 19 19h256q19 0 19 -19v-28q0 -8 -5.5 -13t-13.5 -5h-256z" />
    <glyph glyph-name="imacron" unicode="&#x12b;" horiz-adv-x="225" 
d="M-14 576q-8 0 -13.5 5t-5.5 13v28q0 19 19 19h256q19 0 19 -19v-28q0 -8 -5.5 -13t-13.5 -5h-256zM65 19v362q0 7 5.5 13t13.5 6h57q7 0 13 -6t6 -13v-362q0 -7 -6 -13t-13 -6h-57q-8 0 -13.5 6t-5.5 13z" />
    <glyph glyph-name="Ibreve" unicode="&#x12c;" horiz-adv-x="298" 
d="M97 19v662q0 7 5.5 13t13.5 6h66q8 0 13.5 -6t5.5 -13v-662q0 -7 -5.5 -13t-13.5 -6h-66q-8 0 -13.5 6t-5.5 13zM150 768q-53 0 -91.5 33t-46.5 83q-2 9 2.5 15t13.5 6h29q14 0 18 -16q19 -58 75 -58q24 0 44 17t28 41q5 16 18 16h31q9 0 13.5 -6t2.5 -15
q-8 -50 -46.5 -83t-90.5 -33z" />
    <glyph glyph-name="ibreve" unicode="&#x12d;" horiz-adv-x="225" 
d="M114 529q-53 0 -91.5 33t-46.5 83q-4 21 16 21h29q14 0 18 -15q19 -59 75 -59q24 0 44 17t28 42q5 15 18 15h31q19 0 16 -21q-8 -50 -46.5 -83t-90.5 -33zM65 19v362q0 7 5.5 13t13.5 6h57q7 0 13 -6t6 -13v-362q0 -7 -6 -13t-13 -6h-57q-8 0 -13.5 6t-5.5 13z" />
    <glyph glyph-name="Iogonek" unicode="&#x12e;" horiz-adv-x="298" 
d="M97 19v662q0 7 5.5 13t13.5 6h66q8 0 13.5 -6t5.5 -13v-662q0 -7 -5.5 -13t-13.5 -6h-8q-47 -47 -47 -98q0 -26 17.5 -43t44.5 -17q21 0 50 12q8 3 13.5 -1.5t5.5 -13.5v-28q0 -10 -14 -18q-28 -12 -68 -12q-50 0 -83 27t-33 79q0 66 55 113q-7 0 -12.5 5.5t-5.5 13.5z
" />
    <glyph glyph-name="iogonek" unicode="&#x12f;" horiz-adv-x="225" 
d="M111 563q-24 0 -40.5 17t-16.5 41q0 25 16.5 42t40.5 17q25 0 42 -17t17 -42q0 -24 -17 -41t-42 -17zM65 19v362q0 7 5.5 13t13.5 6h57q7 0 13 -6t6 -13v-362q0 -7 -6 -13t-13 -6h-8q-47 -47 -47 -98q0 -26 17.5 -43t44.5 -17q21 0 50 12q8 3 13.5 -1.5t5.5 -13.5v-28
q0 -10 -14 -18q-28 -12 -68 -12q-50 0 -83 27t-33 79q0 67 57 115q-11 5 -11 17z" />
    <glyph glyph-name="Idotaccent" unicode="&#x130;" horiz-adv-x="298" 
d="M97 19v662q0 7 5.5 13t13.5 6h66q8 0 13.5 -6t5.5 -13v-662q0 -7 -5.5 -13t-13.5 -6h-66q-8 0 -13.5 6t-5.5 13zM149 788q-26 0 -45 19t-19 46t19 45.5t45 18.5q27 0 46 -18.5t19 -45.5t-19 -46t-46 -19z" />
    <glyph glyph-name="dotlessi" unicode="&#x131;" horiz-adv-x="225" 
d="M65 19v362q0 7 5.5 13t13.5 6h57q7 0 13 -6t6 -13v-362q0 -7 -6 -13t-13 -6h-57q-8 0 -13.5 6t-5.5 13z" />
    <glyph glyph-name="IJ" unicode="&#x132;" horiz-adv-x="724" 
d="M97 19v662q0 7 5.5 13t13.5 6h66q8 0 13.5 -6t5.5 -13v-662q0 -7 -5.5 -13t-13.5 -6h-66q-8 0 -13.5 6t-5.5 13zM295 63q-8 13 2 25l36 39q17 15 32 -2q38 -43 82 -43q41 0 71 32t30 94v473q0 8 5.5 13.5t13.5 5.5h66q8 0 13.5 -5.5t5.5 -13.5v-472q0 -102 -57.5 -160.5
t-147.5 -58.5q-93 0 -152 73z" />
    <glyph glyph-name="ij" unicode="&#x133;" horiz-adv-x="473" 
d="M111 563q-24 0 -40.5 17t-16.5 41q0 25 16.5 42t40.5 17q25 0 42 -17t17 -42q0 -24 -17 -41t-42 -17zM65 19v362q0 7 5.5 13t13.5 6h57q7 0 13 -6t6 -13v-362q0 -7 -6 -13t-13 -6h-57q-8 0 -13.5 6t-5.5 13zM359 563q-24 0 -40.5 17t-16.5 41q0 25 16.5 42t40.5 17
q25 0 42 -17t17 -42q0 -24 -17 -41t-42 -17zM312 -124v505q0 8 5.5 13.5t13.5 5.5h58q8 0 13.5 -5.5t5.5 -13.5v-505q0 -90 -47.5 -138t-122.5 -48q-72 0 -114 40q-12 9 -4 23l25 45q7 14 25 3q36 -25 66 -25q35 0 55.5 25.5t20.5 74.5z" />
    <glyph glyph-name="Jcircumflex" unicode="&#x134;" horiz-adv-x="413" 
d="M-17 63q-8 13 2 25l36 39q17 15 32 -2q38 -43 82 -43q41 0 71 32t30 94v473q0 8 5.5 13.5t13.5 5.5h66q8 0 13.5 -5.5t5.5 -13.5v-472q0 -102 -57.5 -160.5t-147.5 -58.5q-93 0 -152 73zM189 769q-14 -8 -23 3l-20 27q-7 10 6 19l125 98q11 9 24 0l125 -98q13 -9 6 -19
l-20 -27q-9 -12 -23 -3l-100 65z" />
    <glyph glyph-name="jcircumflex" unicode="&#x135;" horiz-adv-x="226" 
d="M65 -124v505q0 8 5.5 13.5t13.5 5.5h58q8 0 13.5 -5.5t5.5 -13.5v-505q0 -90 -47.5 -138t-122.5 -48q-72 0 -114 40q-12 9 -4 23l25 45q8 14 25 3q36 -25 66 -25q35 0 55.5 25.5t20.5 74.5zM-11 542l-20 27q-7 10 6 19l125 98q11 9 24 0l125 -98q13 -9 6 -19l-20 -27
q-9 -12 -23 -3l-100 65l-100 -65q-14 -8 -23 3z" />
    <glyph glyph-name="Kcommaaccent" unicode="&#x136;" horiz-adv-x="636" 
d="M97 24v652q0 10 7 17t17 7h58q10 0 17 -7t7 -17v-277l282 291q8 10 19 10h75q14 0 19 -12.5t-5 -23.5l-289 -294l306 -337q7 -7 2 -20t-20 -13h-80q-13 0 -18 7l-291 328v-311q0 -10 -7 -17t-17 -7h-58q-10 0 -17 7t-7 17zM336 -92q30 0 52 -22.5t22 -75.5
q0 -60 -27.5 -107t-59.5 -76q-14 -12 -23 -1l-15 14q-9 11 5 24q64 51 65 124q-9 -3 -22 -3q-25 0 -43.5 18t-18.5 43q0 26 19 44t46 18z" />
    <glyph glyph-name="kcommaaccent" unicode="&#x137;" horiz-adv-x="467" 
d="M65 19v662q0 7 5.5 13t13.5 6h58q8 0 13.5 -6t5.5 -13v-433l156 140q14 12 25 12h70q12 0 15 -10.5t-4 -16.5l-166 -151l196 -196q7 -7 4 -16.5t-15 -9.5h-82q-12 0 -18 8l-181 186v-175q0 -7 -5.5 -13t-13.5 -6h-58q-8 0 -13.5 6t-5.5 13zM240 -92q30 0 52 -22.5
t22 -75.5q0 -60 -27.5 -107t-59.5 -76q-14 -12 -23 -1l-15 14q-9 11 5 24q64 51 65 124q-9 -3 -22 -3q-25 0 -43.5 18t-18.5 43q0 26 19 44t46 18z" />
    <glyph glyph-name="kgreenlandic" unicode="&#x138;" horiz-adv-x="472" 
d="M65 19v362q0 7 5.5 13t13.5 6h58q8 0 13.5 -6t5.5 -13v-163l170 170q14 12 25 12h70q12 0 15 -10.5t-4 -16.5l-180 -178l196 -169q7 -7 4 -16.5t-15 -9.5h-82q-12 0 -18 8l-181 156v-145q0 -7 -5.5 -13t-13.5 -6h-58q-8 0 -13.5 6t-5.5 13z" />
    <glyph glyph-name="Lacute" unicode="&#x139;" horiz-adv-x="499" 
d="M97 19v662q0 8 5.5 13.5t13.5 5.5h66q8 0 13.5 -6t5.5 -13v-588h271q8 0 13.5 -5.5t5.5 -13.5v-55q0 -8 -5.5 -13.5t-13.5 -5.5h-356q-8 0 -13.5 5.5t-5.5 13.5zM80 774q-18 -8 -24 5l-14 28q-6 12 6 19l157 91q4 4 13.5 3.5t12.5 -6.5l23 -44q10 -16 -6 -24z" />
    <glyph glyph-name="lacute" unicode="&#x13a;" horiz-adv-x="225" 
d="M65 19v662q0 7 5.5 13t13.5 6h57q7 0 13 -6t6 -13v-662q0 -7 -6 -13t-13 -6h-57q-8 0 -13.5 6t-5.5 13zM42 760q-18 -9 -24 4l-14 29q-6 13 6 19l157 91q4 4 13.5 3.5t12.5 -6.5l23 -44q8 -17 -6 -24z" />
    <glyph glyph-name="Lcommaaccent" unicode="&#x13b;" horiz-adv-x="499" 
d="M97 19v662q0 8 5.5 13.5t13.5 5.5h66q8 0 13.5 -6t5.5 -13v-588h271q8 0 13.5 -5.5t5.5 -13.5v-55q0 -8 -5.5 -13.5t-13.5 -5.5h-356q-8 0 -13.5 5.5t-5.5 13.5zM294 -92q30 0 52 -22.5t22 -75.5q0 -60 -27.5 -107t-59.5 -76q-14 -12 -23 -1l-15 14q-9 11 5 24
q64 51 65 124q-9 -3 -22 -3q-25 0 -43.5 18t-18.5 43q0 26 19 44t46 18z" />
    <glyph glyph-name="lcommaaccent" unicode="&#x13c;" horiz-adv-x="225" 
d="M65 19v662q0 7 5.5 13t13.5 6h57q7 0 13 -6t6 -13v-662q0 -7 -6 -13t-13 -6h-57q-8 0 -13.5 6t-5.5 13zM109 -92q30 0 52 -22.5t22 -75.5q0 -60 -27.5 -107t-59.5 -76q-14 -12 -23 -1l-15 14q-9 11 5 24q64 51 65 124q-9 -3 -22 -3q-25 0 -43.5 18t-18.5 43q0 26 19 44
t46 18z" />
    <glyph glyph-name="Lcaron" unicode="&#x13d;" horiz-adv-x="499" 
d="M97 19v662q0 8 5.5 13.5t13.5 5.5h66q8 0 13.5 -6t5.5 -13v-588h271q8 0 13.5 -5.5t5.5 -13.5v-55q0 -8 -5.5 -13.5t-13.5 -5.5h-356q-8 0 -13.5 5.5t-5.5 13.5zM394 710q30 0 52 -22.5t22 -75.5q0 -60 -27.5 -107t-59.5 -76q-14 -12 -23 -1l-15 14q-9 11 5 24
q64 51 65 124q-9 -3 -22 -3q-25 0 -43.5 18t-18.5 43q0 26 19 44t46 18z" />
    <glyph glyph-name="lcaron" unicode="&#x13e;" horiz-adv-x="255" 
d="M65 19v662q0 7 5.5 13t13.5 6h57q7 0 13 -6t6 -13v-662q0 -7 -6 -13t-13 -6h-57q-8 0 -13.5 6t-5.5 13zM286 428l-14 14q-10 10 4 24q65 52 65 124q-6 -3 -21 -3q-26 0 -44 18t-18 43q0 26 18.5 44t45.5 18q31 0 53 -23t22 -75q0 -60 -27.5 -107t-59.5 -76
q-13 -12 -24 -1z" />
    <glyph glyph-name="Ldot" unicode="&#x13f;" horiz-adv-x="561" 
d="M97 19v662q0 8 5.5 13.5t13.5 5.5h66q8 0 13.5 -6t5.5 -13v-588h271q8 0 13.5 -5.5t5.5 -13.5v-55q0 -8 -5.5 -13.5t-13.5 -5.5h-356q-8 0 -13.5 5.5t-5.5 13.5zM464 287q-26 0 -45 19t-19 46t19 45.5t45 18.5q27 0 46 -18.5t19 -45.5t-19 -46t-46 -19z" />
    <glyph glyph-name="ldot" unicode="&#x140;" horiz-adv-x="365" 
d="M65 19v662q0 7 5.5 13t13.5 6h57q7 0 13 -6t6 -13v-662q0 -7 -6 -13t-13 -6h-57q-8 0 -13.5 6t-5.5 13zM296 295q-26 0 -45 19t-19 45q0 27 19 46t45 19q27 0 46 -19t19 -46q0 -26 -19 -45t-46 -19z" />
    <glyph glyph-name="Lslash" unicode="&#x141;" horiz-adv-x="508" 
d="M106 19v289l-22 -12q-6 -4 -13.5 -2t-11.5 9l-5 9q-10 16 6 26l46 25v318q0 8 5.5 13.5t13.5 5.5h66q7 0 13 -6t6 -13v-257l99 57q16 9 26 -7l5 -9q9 -16 -7 -26l-123 -71v-275h271q8 0 13.5 -5.5t5.5 -13.5v-55q0 -8 -5.5 -13.5t-13.5 -5.5h-356q-8 0 -13.5 5.5
t-5.5 13.5z" />
    <glyph glyph-name="lslash" unicode="&#x142;" horiz-adv-x="246" 
d="M80 19v297l-43 -24q-6 -4 -13.5 -2t-11.5 9l-5 9q-10 16 6 26l67 37v310q0 7 6 13t13 6h57q8 0 13.5 -6t5.5 -13v-254l76 45q16 8 26 -7l5 -10q9 -14 -7 -25l-100 -58v-353q0 -7 -5.5 -13t-13.5 -6h-57q-7 0 -13 6t-6 13z" />
    <glyph glyph-name="Nacute" unicode="&#x143;" horiz-adv-x="775" 
d="M97 19v673q0 7 5.5 12.5t13.5 5.5h25l434 -502h1v473q0 8 5.5 13.5t13.5 5.5h64q7 0 13 -6t6 -13v-673q0 -7 -5.5 -12.5t-13.5 -5.5h-26l-434 516h-1v-487q0 -8 -5.5 -13.5t-13.5 -5.5h-63q-8 0 -13.5 6t-5.5 13zM327 774q-18 -8 -24 5l-14 28q-6 12 6 19l157 91
q4 4 13.5 3.5t12.5 -6.5l23 -44q10 -16 -6 -24z" />
    <glyph glyph-name="nacute" unicode="&#x144;" horiz-adv-x="507" 
d="M65 19v362q0 7 5.5 13t13.5 6h29q13 0 16 -12l12 -34q7 8 21.5 19t48.5 24t70 13q86 0 126.5 -52.5t40.5 -137.5v-201q0 -7 -6 -13t-13 -6h-57q-8 0 -13.5 5.5t-5.5 13.5v205q0 48 -22 73.5t-61 25.5q-41 0 -73 -22t-38 -38v-244q0 -19 -23 -19h-52q-8 0 -13.5 6t-5.5 13
zM196 543q-18 -9 -24 4l-14 29q-6 13 6 19l157 91q4 4 13.5 3.5t12.5 -6.5l23 -44q8 -17 -6 -24z" />
    <glyph glyph-name="Ncommaaccent" unicode="&#x145;" horiz-adv-x="775" 
d="M97 19v673q0 7 5.5 12.5t13.5 5.5h25l434 -502h1v473q0 8 5.5 13.5t13.5 5.5h64q7 0 13 -6t6 -13v-673q0 -7 -5.5 -12.5t-13.5 -5.5h-26l-434 516h-1v-487q0 -8 -5.5 -13.5t-13.5 -5.5h-63q-8 0 -13.5 6t-5.5 13zM390 -92q30 0 52 -22.5t22 -75.5q0 -60 -27.5 -107
t-59.5 -76q-14 -12 -23 -1l-15 14q-9 11 5 24q64 51 65 124q-9 -3 -22 -3q-25 0 -43.5 18t-18.5 43q0 26 19 44t46 18z" />
    <glyph glyph-name="ncommaaccent" unicode="&#x146;" horiz-adv-x="508" 
d="M65 19v362q0 7 5.5 13t13.5 6h29q13 0 16 -12l12 -34q7 8 21.5 19t48.5 24t70 13q86 0 126.5 -52.5t40.5 -137.5v-201q0 -7 -6 -13t-13 -6h-57q-8 0 -13.5 5.5t-5.5 13.5v205q0 48 -22 73.5t-61 25.5q-41 0 -73 -22t-38 -38v-244q0 -19 -23 -19h-52q-8 0 -13.5 6t-5.5 13
zM257 -92q30 0 52 -22.5t22 -75.5q0 -60 -27.5 -107t-59.5 -76q-14 -12 -23 -1l-15 14q-9 11 5 24q64 51 65 124q-9 -3 -22 -3q-25 0 -43.5 18t-18.5 43q0 26 19 44t46 18z" />
    <glyph glyph-name="Ncaron" unicode="&#x147;" horiz-adv-x="775" 
d="M97 19v673q0 7 5.5 12.5t13.5 5.5h25l434 -502h1v473q0 8 5.5 13.5t13.5 5.5h64q7 0 13 -6t6 -13v-673q0 -7 -5.5 -12.5t-13.5 -5.5h-26l-434 516h-1v-487q0 -8 -5.5 -13.5t-13.5 -5.5h-63q-8 0 -13.5 6t-5.5 13zM380 768l-125 98q-13 9 -6 19l20 27q9 11 23 3l100 -65
l100 65q14 9 23 -3l20 -27q7 -10 -6 -19l-125 -98q-13 -9 -24 0z" />
    <glyph glyph-name="ncaron" unicode="&#x148;" horiz-adv-x="507" 
d="M65 19v362q0 7 5.5 13t13.5 6h29q13 0 16 -12l12 -34q7 8 21.5 19t48.5 24t70 13q86 0 126.5 -52.5t40.5 -137.5v-201q0 -7 -6 -13t-13 -6h-57q-8 0 -13.5 5.5t-5.5 13.5v205q0 48 -22 73.5t-61 25.5q-41 0 -73 -22t-38 -38v-244q0 -19 -23 -19h-52q-8 0 -13.5 6t-5.5 13
zM250 535l-125 98q-13 9 -6 19l20 27q9 11 23 3l100 -65l100 65q14 9 23 -3l20 -27q7 -10 -6 -19l-125 -98q-13 -9 -24 0z" />
    <glyph glyph-name="napostrophe" unicode="&#x149;" horiz-adv-x="507" 
d="M65 19v362q0 7 5.5 13t13.5 6h29q13 0 16 -12l12 -34q7 8 21.5 19t48.5 24t70 13q86 0 126.5 -52.5t40.5 -137.5v-201q0 -7 -6 -13t-13 -6h-57q-8 0 -13.5 5.5t-5.5 13.5v205q0 48 -22 73.5t-61 25.5q-41 0 -73 -22t-38 -38v-244q0 -19 -23 -19h-52q-8 0 -13.5 6t-5.5 13
zM-75 710q30 0 52 -22.5t22 -75.5q0 -60 -27.5 -107t-59.5 -76q-14 -12 -23 -1l-15 14q-9 11 5 24q64 51 65 124q-9 -3 -22 -3q-25 0 -43.5 18t-18.5 43q0 26 19 44t46 18z" />
    <glyph glyph-name="Eng" unicode="&#x14a;" horiz-adv-x="775" 
d="M97 19v673q0 7 5.5 12.5t13.5 5.5h25l434 -502h1v473q0 8 5.5 13.5t13.5 5.5h64q7 0 13 -6t6 -13v-805q0 -90 -47.5 -138t-122.5 -48q-72 0 -114 40q-12 9 -4 23l25 45q7 14 25 3q36 -25 66 -25q74 0 74 100v180l-381 450h-1v-487q0 -8 -5.5 -13.5t-13.5 -5.5h-63
q-8 0 -13.5 6t-5.5 13z" />
    <glyph glyph-name="eng" unicode="&#x14b;" horiz-adv-x="508" 
d="M65 19v362q0 7 5.5 13t13.5 6h29q13 0 16 -12l12 -34q7 8 21.5 19t48.5 24t70 13q86 0 126.5 -52.5t40.5 -137.5v-344q0 -90 -47.5 -138t-122.5 -48q-72 0 -114 40q-12 9 -4 23l25 45q7 14 25 3q36 -25 66 -25q35 0 56 25.5t21 74.5v344q0 48 -22 73.5t-61 25.5
q-41 0 -73 -22t-38 -38v-240q0 -19 -23 -19h-52q-8 0 -13.5 6t-5.5 13z" />
    <glyph glyph-name="Omacron" unicode="&#x14c;" horiz-adv-x="811" 
d="M46 349q0 150 104.5 255.5t254.5 105.5t255 -105.5t105 -255.5t-105 -254.5t-255 -104.5t-254.5 104.5t-104.5 254.5zM146 349q0 -107 76 -183t183 -76t183.5 76t76.5 183t-76.5 184t-183.5 77q-106 0 -182.5 -77t-76.5 -184zM278 814q-8 0 -13.5 5t-5.5 13v28
q0 19 19 19h256q19 0 19 -19v-28q0 -8 -5.5 -13t-13.5 -5h-256z" />
    <glyph glyph-name="omacron" unicode="&#x14d;" horiz-adv-x="474" 
d="M35 201q0 85 59 147t143 62t143 -62t59 -147q0 -87 -59 -149t-143 -62t-143 62t-59 149zM124 201q0 -52 33 -88.5t80 -36.5t80 36.5t33 88.5q0 50 -33 86t-80 36t-80 -36t-33 -86zM110 576q-8 0 -13.5 5t-5.5 13v28q0 19 19 19h256q19 0 19 -19v-28q0 -8 -5.5 -13
t-13.5 -5h-256z" />
    <glyph glyph-name="Obreve" unicode="&#x14e;" horiz-adv-x="811" 
d="M46 349q0 150 104.5 255.5t254.5 105.5t255 -105.5t105 -255.5t-105 -254.5t-255 -104.5t-254.5 104.5t-104.5 254.5zM146 349q0 -107 76 -183t183 -76t183.5 76t76.5 183t-76.5 184t-183.5 77q-106 0 -182.5 -77t-76.5 -184zM406 768q-53 0 -91.5 33t-46.5 83
q-2 9 2.5 15t13.5 6h29q14 0 18 -16q19 -58 75 -58q24 0 44 17t28 41q5 16 18 16h31q9 0 13.5 -6t2.5 -15q-8 -50 -46.5 -83t-90.5 -33z" />
    <glyph glyph-name="obreve" unicode="&#x14f;" horiz-adv-x="474" 
d="M35 201q0 85 59 147t143 62t143 -62t59 -147q0 -87 -59 -149t-143 -62t-143 62t-59 149zM124 201q0 -52 33 -88.5t80 -36.5t80 36.5t33 88.5q0 50 -33 86t-80 36t-80 -36t-33 -86zM238 529q-53 0 -91.5 33t-46.5 83q-4 21 16 21h29q14 0 18 -15q19 -59 75 -59q24 0 44 17
t28 42q5 15 18 15h31q19 0 16 -21q-8 -50 -46.5 -83t-90.5 -33z" />
    <glyph glyph-name="Ohungarumlaut" unicode="&#x150;" horiz-adv-x="811" 
d="M46 349q0 150 104.5 255.5t254.5 105.5t255 -105.5t105 -255.5t-105 -254.5t-255 -104.5t-254.5 104.5t-104.5 254.5zM146 349q0 -107 76 -183t183 -76t183.5 76t76.5 183t-76.5 184t-183.5 77q-106 0 -182.5 -77t-76.5 -184zM492 768q-11 0 -16 5.5t-3 13.5l43 141
q6 19 19 19h57q14 0 19 -7.5t-1 -17.5l-78 -139q-9 -15 -18 -15h-22zM326 768q-10 0 -15.5 5.5t-3.5 13.5l43 141q6 19 19 19h57q14 0 19 -7.5t-1 -17.5l-78 -139q-8 -15 -18 -15h-22z" />
    <glyph glyph-name="ohungarumlaut" unicode="&#x151;" horiz-adv-x="474" 
d="M35 201q0 85 59 147t143 62t143 -62t59 -147q0 -87 -59 -149t-143 -62t-143 62t-59 149zM124 201q0 -52 33 -88.5t80 -36.5t80 36.5t33 88.5q0 50 -33 86t-80 36t-80 -36t-33 -86zM313 521q-11 0 -16 5.5t-3 13.5l44 141q6 19 19 19h57q14 0 19 -8t-1 -17l-78 -139
q-8 -15 -18 -15h-23zM147 521q-11 0 -16 5.5t-3 13.5l44 141q6 19 19 19h57q14 0 19 -7.5t-1 -17.5l-78 -139q-8 -15 -18 -15h-23z" />
    <glyph glyph-name="OE" unicode="&#x152;" horiz-adv-x="970" 
d="M46 349q0 150 104.5 255.5t254.5 105.5q22 0 45 -2.5t35 -5.5l12 -2h400q8 0 13.5 -5.5t5.5 -13.5v-56q0 -8 -5.5 -13.5t-13.5 -5.5h-316v-204h267q8 0 13.5 -6t5.5 -13v-56q0 -8 -5.5 -13.5t-13.5 -5.5h-267v-215h316q8 0 13.5 -5.5t5.5 -13.5v-55q0 -8 -5.5 -13.5
t-13.5 -5.5h-400q-49 -10 -92 -10q-150 0 -254.5 104.5t-104.5 254.5zM146 349q0 -107 76 -183.5t183 -76.5q43 0 73 10v500q-38 11 -73 11q-106 0 -182.5 -77t-76.5 -184z" />
    <glyph glyph-name="oe" unicode="&#x153;" horiz-adv-x="756" 
d="M35 202q0 85 59 146.5t143 61.5q91 0 151 -75q57 75 153 75q77 0 130.5 -52t53.5 -133q0 -13 -2 -27q-2 -17 -19 -17h-270q6 -43 37.5 -75.5t75.5 -32.5q45 0 89 27q20 11 27 1q5 -6 14.5 -17.5t14.5 -17.5q11 -15 -3 -26q-56 -50 -148 -50q-94 0 -153 74
q-59 -74 -151 -74q-84 0 -143 62.5t-59 149.5zM439 244h193q-1 37 -28 62t-65 25q-39 0 -67 -24.5t-33 -62.5zM124 202q0 -52 32.5 -89t80.5 -37q47 0 79.5 37t32.5 89q0 50 -32.5 85.5t-79.5 35.5q-48 0 -80.5 -35t-32.5 -86z" />
    <glyph glyph-name="Racute" unicode="&#x154;" horiz-adv-x="665" 
d="M97 19v662q0 8 5.5 13.5t13.5 5.5h272q90 0 154 -62.5t64 -151.5q0 -68 -40.5 -122t-107.5 -81l137 -254q6 -10 0.5 -19.5t-17.5 -9.5h-78q-12 0 -16 9l-133 265h-151v-255q0 -7 -6 -13t-13 -6h-65q-8 0 -13.5 5.5t-5.5 13.5zM202 360h178q49 0 85.5 36.5t36.5 87.5
q0 48 -36.5 83.5t-85.5 35.5h-178v-243zM247 774q-18 -8 -24 5l-14 28q-6 12 6 19l157 91q4 4 13.5 3.5t12.5 -6.5l23 -44q10 -16 -6 -24z" />
    <glyph glyph-name="racute" unicode="&#x155;" horiz-adv-x="336" 
d="M65 19v362q0 7 5.5 13t13.5 6h29q13 0 17 -14l11 -34q41 58 117 58q34 0 57.5 -9.5t15.5 -27.5l-24 -49q-7 -16 -24 -9q-14 7 -34 7q-26 0 -48 -12t-30 -21t-12 -16v-254q0 -19 -27 -19h-48q-8 0 -13.5 6t-5.5 13zM118 543q-18 -9 -24 4l-14 29q-6 13 6 19l157 91
q4 4 13.5 3.5t12.5 -6.5l23 -44q8 -17 -6 -24z" />
    <glyph glyph-name="Rcommaaccent" unicode="&#x156;" horiz-adv-x="664" 
d="M97 19v662q0 8 5.5 13.5t13.5 5.5h272q90 0 154 -62.5t64 -151.5q0 -68 -40.5 -122t-107.5 -81l137 -254q6 -10 0.5 -19.5t-17.5 -9.5h-78q-12 0 -16 9l-133 265h-151v-255q0 -7 -6 -13t-13 -6h-65q-8 0 -13.5 5.5t-5.5 13.5zM202 360h178q49 0 85.5 36.5t36.5 87.5
q0 48 -36.5 83.5t-85.5 35.5h-178v-243zM324 -92q30 0 52 -22.5t22 -75.5q0 -60 -27.5 -107t-59.5 -76q-14 -12 -23 -1l-15 14q-9 11 5 24q64 51 65 124q-9 -3 -22 -3q-25 0 -43.5 18t-18.5 43q0 26 19 44t46 18z" />
    <glyph glyph-name="rcommaaccent" unicode="&#x157;" horiz-adv-x="336" 
d="M65 19v362q0 7 5.5 13t13.5 6h29q13 0 17 -14l11 -34q41 58 117 58q34 0 57.5 -9.5t15.5 -27.5l-24 -49q-7 -16 -24 -9q-14 7 -34 7q-26 0 -48 -12t-30 -21t-12 -16v-254q0 -19 -27 -19h-48q-8 0 -13.5 6t-5.5 13zM108 -92q30 0 52 -22.5t22 -75.5q0 -60 -27.5 -107
t-59.5 -76q-14 -12 -23 -1l-15 14q-9 11 5 24q64 51 65 124q-9 -3 -22 -3q-25 0 -43.5 18t-18.5 43q0 26 19 44t46 18z" />
    <glyph glyph-name="Rcaron" unicode="&#x158;" horiz-adv-x="665" 
d="M97 19v662q0 8 5.5 13.5t13.5 5.5h272q90 0 154 -62.5t64 -151.5q0 -68 -40.5 -122t-107.5 -81l137 -254q6 -10 0.5 -19.5t-17.5 -9.5h-78q-12 0 -16 9l-133 265h-151v-255q0 -7 -6 -13t-13 -6h-65q-8 0 -13.5 5.5t-5.5 13.5zM202 360h178q49 0 85.5 36.5t36.5 87.5
q0 48 -36.5 83.5t-85.5 35.5h-178v-243zM297 768l-125 98q-13 9 -6 19l20 27q9 11 23 3l100 -65l100 65q14 9 23 -3l20 -27q7 -10 -6 -19l-125 -98q-13 -9 -24 0z" />
    <glyph glyph-name="rcaron" unicode="&#x159;" horiz-adv-x="336" 
d="M65 19v362q0 7 5.5 13t13.5 6h29q13 0 17 -14l11 -34q41 58 117 58q34 0 57.5 -9.5t15.5 -27.5l-24 -49q-7 -16 -24 -9q-14 7 -34 7q-26 0 -48 -12t-30 -21t-12 -16v-254q0 -19 -27 -19h-48q-8 0 -13.5 6t-5.5 13zM158 535l-125 98q-13 9 -6 19l20 27q9 11 23 3l100 -65
l100 65q14 9 23 -3l20 -27q7 -10 -6 -19l-125 -98q-13 -9 -24 0z" />
    <glyph glyph-name="Sacute" unicode="&#x15a;" horiz-adv-x="537" 
d="M58 69q-16 14 -6 32q4 7 13 21t13 20q16 23 34 8q83 -69 160 -69q51 0 82 27t31 66q0 43 -36.5 75t-114.5 64q-88 37 -135 84.5t-47 127.5q0 31 12.5 62t37 59.5t68.5 46t101 17.5q101 0 185 -59q20 -13 6 -34q-4 -6 -12.5 -19t-12.5 -19q-14 -23 -35 -10q-88 50 -135 50
q-57 0 -85 -28t-28 -62q0 -41 31 -70t96 -56q104 -42 159.5 -91.5t55.5 -132.5q0 -79 -63.5 -134t-159.5 -55q-55 0 -106.5 18t-73 33t-35.5 28zM206 774q-18 -8 -24 5l-14 28q-6 12 6 19l157 91q4 4 13.5 3.5t12.5 -6.5l23 -44q10 -16 -6 -24z" />
    <glyph glyph-name="sacute" unicode="&#x15b;" horiz-adv-x="358" 
d="M47 31q-12 8 -6 21l21 39q8 15 25 5q44 -26 93 -26t49 34q0 19 -16.5 32t-60.5 33q-114 50 -114 131q0 43 35 76.5t102 33.5q70 0 118 -31q18 -12 8 -29l-18 -34q-9 -16 -26 -8q-44 21 -82 21q-45 0 -45 -30q0 -18 14.5 -28.5t49.5 -25.5q67 -29 100 -58t33 -80
q0 -48 -41.5 -82.5t-106.5 -34.5q-81 0 -132 41zM120 543q-18 -9 -24 4l-14 29q-6 13 6 19l157 91q4 4 13.5 3.5t12.5 -6.5l23 -44q8 -17 -6 -24z" />
    <glyph glyph-name="Scircumflex" unicode="&#x15c;" horiz-adv-x="537" 
d="M58 69q-16 14 -6 32q4 7 13 21t13 20q16 23 34 8q83 -69 160 -69q51 0 82 27t31 66q0 43 -36.5 75t-114.5 64q-88 37 -135 84.5t-47 127.5q0 31 12.5 62t37 59.5t68.5 46t101 17.5q101 0 185 -59q20 -13 6 -34q-4 -6 -12.5 -19t-12.5 -19q-14 -23 -35 -10q-88 50 -135 50
q-57 0 -85 -28t-28 -62q0 -41 31 -70t96 -56q104 -42 159.5 -91.5t55.5 -132.5q0 -79 -63.5 -134t-159.5 -55q-55 0 -106.5 18t-73 33t-35.5 28zM167 769q-14 -8 -23 3l-20 27q-7 10 6 19l125 98q11 9 24 0l125 -98q13 -9 6 -19l-20 -27q-9 -12 -23 -3l-100 65z" />
    <glyph glyph-name="scircumflex" unicode="&#x15d;" horiz-adv-x="358" 
d="M47 31q-12 8 -6 21l21 39q8 15 25 5q44 -26 93 -26t49 34q0 19 -16.5 32t-60.5 33q-114 50 -114 131q0 43 35 76.5t102 33.5q70 0 118 -31q18 -12 8 -29l-18 -34q-9 -16 -26 -8q-44 21 -82 21q-45 0 -45 -30q0 -18 14.5 -28.5t49.5 -25.5q67 -29 100 -58t33 -80
q0 -48 -41.5 -82.5t-106.5 -34.5q-81 0 -132 41zM55 542l-20 27q-7 10 6 19l125 98q11 9 24 0l125 -98q13 -9 6 -19l-20 -27q-9 -12 -23 -3l-100 65l-100 -65q-14 -8 -23 3z" />
    <glyph glyph-name="Scedilla" unicode="&#x15e;" horiz-adv-x="539" 
d="M59 69q-16 14 -6 32q5 7 13 21t13 20q16 23 34 8q83 -69 160 -69q51 0 82 27t31 66q0 43 -36.5 75t-114.5 64q-88 37 -135 84.5t-47 127.5q0 31 12.5 62t37 59.5t68.5 46t101 17.5q101 0 185 -59q20 -13 6 -34l-25 -38q-14 -23 -35 -10q-87 50 -135 50q-57 0 -85 -28
t-28 -62q0 -41 31 -70t96 -56q104 -42 159.5 -91.5t55.5 -132.5q0 -78 -62.5 -133t-157.5 -56v-43q46 -6 73.5 -33.5t27.5 -69.5q0 -44 -30.5 -74t-74.5 -30q-46 0 -76 35q-13 15 1 27l17 14q13 9 22 -1q14 -15 36 -15q17 0 28 12t11 30q0 47 -78 56q-17 3 -17 19v78
q-40 7 -77 23.5t-54 28.5t-27 22z" />
    <glyph glyph-name="scedilla" unicode="&#x15f;" horiz-adv-x="360" 
d="M48 31q-12 8 -6 21l21 39q8 15 25 5q44 -26 93 -26t49 34q0 19 -16 32t-61 33q-114 50 -114 131q0 43 35 76.5t102 33.5q70 0 118 -31q18 -12 8 -29l-18 -34q-9 -16 -26 -8q-44 21 -82 21q-45 0 -45 -30q0 -18 14.5 -28.5t49.5 -25.5q67 -29 100 -58t33 -80
q0 -48 -40.5 -82t-104.5 -35v-42q46 -6 73.5 -33.5t27.5 -69.5q0 -44 -30.5 -74t-74.5 -30q-46 0 -76 35q-13 15 1 27l17 14q13 9 22 -1q14 -15 36 -15q17 0 28 12t11 30q0 47 -78 56q-17 3 -17 19v78q-46 10 -75 35z" />
    <glyph glyph-name="Scaron" unicode="&#x160;" horiz-adv-x="537" 
d="M58 69q-16 14 -6 32q4 7 13 21t13 20q16 23 34 8q83 -69 160 -69q51 0 82 27t31 66q0 43 -36.5 75t-114.5 64q-88 37 -135 84.5t-47 127.5q0 31 12.5 62t37 59.5t68.5 46t101 17.5q101 0 185 -59q20 -13 6 -34q-4 -6 -12.5 -19t-12.5 -19q-14 -23 -35 -10q-88 50 -135 50
q-57 0 -85 -28t-28 -62q0 -41 31 -70t96 -56q104 -42 159.5 -91.5t55.5 -132.5q0 -79 -63.5 -134t-159.5 -55q-55 0 -106.5 18t-73 33t-35.5 28zM254 768l-125 98q-13 9 -6 19l20 27q9 11 23 3l100 -65l100 65q14 9 23 -3l20 -27q7 -10 -6 -19l-125 -98q-13 -9 -24 0z" />
    <glyph glyph-name="scaron" unicode="&#x161;" horiz-adv-x="358" 
d="M47 31q-12 8 -6 21l21 39q8 15 25 5q44 -26 93 -26t49 34q0 19 -16.5 32t-60.5 33q-114 50 -114 131q0 43 35 76.5t102 33.5q70 0 118 -31q18 -12 8 -29l-18 -34q-9 -16 -26 -8q-44 21 -82 21q-45 0 -45 -30q0 -18 14.5 -28.5t49.5 -25.5q67 -29 100 -58t33 -80
q0 -48 -41.5 -82.5t-106.5 -34.5q-81 0 -132 41zM164 535l-125 98q-13 9 -6 19l20 27q9 11 23 3l100 -65l100 65q14 9 23 -3l20 -27q7 -10 -6 -19l-125 -98q-13 -9 -24 0z" />
    <glyph glyph-name="Tcommaaccent" unicode="&#x162;" 
d="M193 19v587h-163q-8 0 -13.5 5.5t-5.5 13.5v56q0 8 5.5 13.5t13.5 5.5h430q8 0 13.5 -5.5t5.5 -13.5v-56q0 -8 -5.5 -13.5t-13.5 -5.5h-163v-587q0 -7 -5.5 -13t-13.5 -6h-66q-8 0 -13.5 6t-5.5 13zM242 -92q30 0 52 -22.5t22 -75.5q0 -60 -27.5 -107t-59.5 -76
q-14 -12 -23 -1l-15 14q-9 11 5 24q64 51 65 124q-9 -3 -22 -3q-25 0 -43.5 18t-18.5 43q0 26 19 44t46 18z" />
    <glyph glyph-name="tcommaaccent" unicode="&#x163;" horiz-adv-x="345" 
d="M90 109v208h-42q-8 0 -13.5 5.5t-5.5 13.5v45q0 19 19 19h42v111q0 7 6 13t13 6l57 1q7 0 12.5 -5.5t5.5 -13.5v-112h102q19 0 19 -19v-45q0 -8 -5.5 -13.5t-13.5 -5.5h-102v-198q0 -24 8 -32t24 -8q25 0 61 18q16 7 23 -9l18 -44q7 -16 -9 -24q-13 -8 -49.5 -19
t-67.5 -11q-56 0 -79 30.5t-23 88.5zM190 -92q30 0 52 -22.5t22 -75.5q0 -60 -27.5 -107t-59.5 -76q-14 -12 -23 -1l-15 14q-9 11 5 24q64 51 65 124q-9 -3 -22 -3q-25 0 -43.5 18t-18.5 43q0 26 19 44t46 18z" />
    <glyph glyph-name="Tcaron" unicode="&#x164;" 
d="M193 19v587h-163q-8 0 -13.5 5.5t-5.5 13.5v56q0 8 5.5 13.5t13.5 5.5h430q8 0 13.5 -5.5t5.5 -13.5v-56q0 -8 -5.5 -13.5t-13.5 -5.5h-163v-587q0 -7 -5.5 -13t-13.5 -6h-66q-8 0 -13.5 6t-5.5 13zM232 768l-125 98q-13 9 -6 19l20 27q9 11 23 3l100 -65l100 65
q14 9 23 -3l20 -27q7 -10 -6 -19l-125 -98q-13 -9 -24 0z" />
    <glyph glyph-name="tcaron" unicode="&#x165;" horiz-adv-x="346" 
d="M91 109v208h-42q-8 0 -13.5 5.5t-5.5 13.5v45q0 19 19 19h42v111q0 7 5.5 13t13.5 6l57 1q7 0 12.5 -5.5t5.5 -13.5v-112h102q19 0 19 -19v-45q0 -8 -5.5 -13.5t-13.5 -5.5h-102v-198q0 -24 8 -32t24 -8q25 0 61 18q16 7 23 -9l18 -44q7 -16 -9 -24q-13 -8 -49.5 -19
t-67.5 -11q-56 0 -79 30.5t-23 88.5zM386 428l-14 14q-10 10 4 24q65 52 65 124q-6 -3 -21 -3q-26 0 -44 18t-18 43q0 26 18.5 44t45.5 18q31 0 53 -23t22 -75q0 -60 -27.5 -107t-59.5 -76q-13 -12 -24 -1z" />
    <glyph glyph-name="Tbar" unicode="&#x166;" 
d="M193 19v274h-105q-7 0 -12.5 5.5t-5.5 13.5v10q0 8 5.5 13.5t12.5 5.5h105v265h-163q-8 0 -13.5 5.5t-5.5 13.5v56q0 8 5.5 13.5t13.5 5.5h430q8 0 13.5 -5.5t5.5 -13.5v-56q0 -8 -5.5 -13.5t-13.5 -5.5h-163v-265h104q8 0 13.5 -5.5t5.5 -13.5v-11q0 -8 -5.5 -13
t-13.5 -5h-104v-274q0 -7 -5.5 -13t-13.5 -6h-66q-8 0 -13.5 6t-5.5 13z" />
    <glyph glyph-name="tbar" unicode="&#x167;" horiz-adv-x="346" 
d="M91 109v62h-36q-7 0 -12.5 5.5t-5.5 13.5v10q0 8 5.5 13.5t12.5 5.5h36v99h-42q-8 0 -13.5 5.5t-5.5 13.5v44q0 19 19 19h42v111q0 7 5.5 13t13.5 6l57 1q7 0 12.5 -5.5t5.5 -13.5v-112h102q19 0 19 -19v-44q0 -8 -5.5 -13.5t-13.5 -5.5h-102v-99h88q8 0 13.5 -5.5
t5.5 -13.5v-11q0 -8 -5.5 -13t-13.5 -5h-88v-50q0 -24 8 -32t24 -8q29 0 61 16q16 7 23 -9l18 -44q7 -16 -9 -24q-13 -8 -49.5 -19t-67.5 -11q-56 0 -79 30.5t-23 88.5z" />
    <glyph glyph-name="Utilde" unicode="&#x168;" horiz-adv-x="721" 
d="M89 261v420q0 7 5.5 13t13.5 6h67q8 0 13.5 -5.5t5.5 -13.5v-413q0 -77 45.5 -127.5t120.5 -50.5q76 0 122 50t46 126v415q0 8 5.5 13.5t13.5 5.5h67q8 0 13.5 -6t5.5 -13v-420q0 -115 -77.5 -193t-195.5 -78q-117 0 -194 78t-77 193zM250 792l-23 15q-13 8 -6 23
q42 84 98 84q25 0 45.5 -16t35.5 -32t28 -16q8 0 15 4.5t10.5 9.5t8.5 14t7 12q10 17 25 9q1 0 11.5 -7t14.5 -12q5 -9 -3 -27q-34 -75 -94 -75q-28 0 -61.5 32.5t-45.5 32.5q-24 0 -43 -41q-8 -18 -23 -10z" />
    <glyph glyph-name="utilde" unicode="&#x169;" horiz-adv-x="494" 
d="M60 179v202q0 7 6 13t13 6h57q8 0 13.5 -6t5.5 -13v-205q0 -48 21.5 -74t60.5 -26t67.5 24t31.5 42v239q0 19 22 19h52q8 0 13.5 -6t5.5 -13v-362q0 -7 -5.5 -13t-13.5 -6h-28q-13 0 -18 16l-10 29l-5 -5q-5 -4 -8.5 -7t-11 -9t-14.5 -10t-18 -9t-21.5 -8t-24.5 -5
t-29 -2q-85 0 -123.5 52t-38.5 137zM131 568l-23 15q-13 8 -6 23q42 84 98 84q25 0 45.5 -16t35.5 -32t28 -16q8 0 15 4.5t10.5 9.5t8.5 14t7 12q10 17 25 9q1 0 11.5 -7t14.5 -12q5 -9 -3 -27q-34 -75 -94 -75q-28 0 -61.5 32.5t-45.5 32.5q-24 0 -43 -41q-8 -18 -23 -10z
" />
    <glyph glyph-name="Umacron" unicode="&#x16a;" horiz-adv-x="721" 
d="M89 261v420q0 7 5.5 13t13.5 6h67q8 0 13.5 -5.5t5.5 -13.5v-413q0 -77 45.5 -127.5t120.5 -50.5q76 0 122 50t46 126v415q0 8 5.5 13.5t13.5 5.5h67q8 0 13.5 -6t5.5 -13v-420q0 -115 -77.5 -193t-195.5 -78q-117 0 -194 78t-77 193zM236 814q-8 0 -13.5 5t-5.5 13v28
q0 19 19 19h256q19 0 19 -19v-28q0 -8 -5.5 -13t-13.5 -5h-256z" />
    <glyph glyph-name="umacron" unicode="&#x16b;" horiz-adv-x="494" 
d="M60 179v202q0 7 6 13t13 6h57q8 0 13.5 -6t5.5 -13v-205q0 -48 21.5 -74t60.5 -26t67.5 24t31.5 42v239q0 19 22 19h52q8 0 13.5 -6t5.5 -13v-362q0 -7 -5.5 -13t-13.5 -6h-28q-13 0 -18 16l-10 29l-5 -5q-5 -4 -8.5 -7t-11 -9t-14.5 -10t-18 -9t-21.5 -8t-24.5 -5
t-29 -2q-85 0 -123.5 52t-38.5 137zM123 576q-8 0 -13.5 5t-5.5 13v28q0 19 19 19h256q19 0 19 -19v-28q0 -8 -5.5 -13t-13.5 -5h-256z" />
    <glyph glyph-name="Ubreve" unicode="&#x16c;" horiz-adv-x="721" 
d="M89 261v420q0 7 5.5 13t13.5 6h67q8 0 13.5 -5.5t5.5 -13.5v-413q0 -77 45.5 -127.5t120.5 -50.5q76 0 122 50t46 126v415q0 8 5.5 13.5t13.5 5.5h67q8 0 13.5 -6t5.5 -13v-420q0 -115 -77.5 -193t-195.5 -78q-117 0 -194 78t-77 193zM367 768q-53 0 -91.5 33t-46.5 83
q-2 9 2.5 15t13.5 6h29q14 0 18 -16q19 -58 75 -58q24 0 44 17t28 41q5 16 18 16h31q9 0 13.5 -6t2.5 -15q-8 -50 -46.5 -83t-90.5 -33z" />
    <glyph glyph-name="ubreve" unicode="&#x16d;" horiz-adv-x="494" 
d="M60 179v202q0 7 6 13t13 6h57q8 0 13.5 -6t5.5 -13v-205q0 -48 21.5 -74t60.5 -26t67.5 24t31.5 42v239q0 19 22 19h52q8 0 13.5 -6t5.5 -13v-362q0 -7 -5.5 -13t-13.5 -6h-28q-13 0 -18 16l-10 29l-5 -5q-5 -4 -8.5 -7t-11 -9t-14.5 -10t-18 -9t-21.5 -8t-24.5 -5
t-29 -2q-85 0 -123.5 52t-38.5 137zM251 529q-53 0 -91.5 33t-46.5 83q-3 21 16 21h29q14 0 18 -15q19 -59 75 -59q24 0 44 17t28 42q5 15 18 15h31q20 0 16 -21q-8 -50 -46.5 -83t-90.5 -33z" />
    <glyph glyph-name="Uring" unicode="&#x16e;" horiz-adv-x="721" 
d="M89 261v420q0 7 5.5 13t13.5 6h67q8 0 13.5 -5.5t5.5 -13.5v-413q0 -77 45.5 -127.5t120.5 -50.5q76 0 122 50t46 126v415q0 8 5.5 13.5t13.5 5.5h67q8 0 13.5 -6t5.5 -13v-420q0 -115 -77.5 -193t-195.5 -78q-117 0 -194 78t-77 193zM363 756q-47 0 -79 32t-32 79t32 79
t79 32q46 0 78.5 -32.5t32.5 -78.5t-32.5 -78.5t-78.5 -32.5zM363 811q21 0 37 17t16 39t-15.5 37.5t-37.5 15.5q-23 0 -39.5 -15.5t-16.5 -37.5t16.5 -39t39.5 -17z" />
    <glyph glyph-name="uring" unicode="&#x16f;" horiz-adv-x="494" 
d="M60 179v202q0 7 6 13t13 6h57q8 0 13.5 -6t5.5 -13v-205q0 -48 21.5 -74t60.5 -26t67.5 24t31.5 42v239q0 19 22 19h52q8 0 13.5 -6t5.5 -13v-362q0 -7 -5.5 -13t-13.5 -6h-28q-13 0 -18 16l-10 29l-5 -5q-5 -4 -8.5 -7t-11 -9t-14.5 -10t-18 -9t-21.5 -8t-24.5 -5
t-29 -2q-85 0 -123.5 52t-38.5 137zM247 488q-47 0 -79 32t-32 79t32 79t79 32q46 0 78.5 -32.5t32.5 -78.5t-32.5 -78.5t-78.5 -32.5zM247 543q21 0 37 17t16 39t-15.5 37.5t-37.5 15.5q-24 0 -40 -15.5t-16 -37.5t16 -39t40 -17z" />
    <glyph glyph-name="Uhungarumlaut" unicode="&#x170;" horiz-adv-x="721" 
d="M89 261v420q0 7 5.5 13t13.5 6h67q8 0 13.5 -5.5t5.5 -13.5v-413q0 -77 45.5 -127.5t120.5 -50.5q76 0 122 50t46 126v415q0 8 5.5 13.5t13.5 5.5h67q8 0 13.5 -6t5.5 -13v-420q0 -115 -77.5 -193t-195.5 -78q-117 0 -194 78t-77 193zM436 768q-11 0 -16 5.5t-3 13.5
l43 141q6 19 19 19h57q14 0 19 -7.5t-1 -17.5l-78 -139q-9 -15 -18 -15h-22zM270 768q-10 0 -15.5 5.5t-3.5 13.5l43 141q6 19 19 19h57q14 0 19 -7.5t-1 -17.5l-78 -139q-8 -15 -18 -15h-22z" />
    <glyph glyph-name="uhungarumlaut" unicode="&#x171;" horiz-adv-x="494" 
d="M60 179v202q0 7 6 13t13 6h57q8 0 13.5 -6t5.5 -13v-205q0 -48 21.5 -74t60.5 -26t67.5 24t31.5 42v239q0 19 22 19h52q8 0 13.5 -6t5.5 -13v-362q0 -7 -5.5 -13t-13.5 -6h-28q-13 0 -18 16l-10 29l-5 -5q-5 -4 -8.5 -7t-11 -9t-14.5 -10t-18 -9t-21.5 -8t-24.5 -5
t-29 -2q-85 0 -123.5 52t-38.5 137zM323 521q-11 0 -16 5.5t-3 13.5l44 141q6 19 19 19h57q14 0 19 -8t-1 -17l-78 -139q-8 -15 -18 -15h-23zM157 521q-11 0 -16 5.5t-3 13.5l44 141q6 19 19 19h57q14 0 19 -7.5t-1 -17.5l-78 -139q-8 -15 -18 -15h-23z" />
    <glyph glyph-name="Uogonek" unicode="&#x172;" horiz-adv-x="724" 
d="M90 261v420q0 7 6 13t13 6h67q8 0 13.5 -5.5t5.5 -13.5v-413q0 -77 45.5 -127.5t120.5 -50.5q76 0 122 50t46 126v415q0 8 5.5 13.5t13.5 5.5h67q7 0 13 -6t6 -13v-420q0 -110 -71 -186.5t-182 -83.5q-38 -42 -38 -89q0 -26 17.5 -43t44.5 -17q21 0 50 12q8 3 13.5 -1.5
t5.5 -13.5v-28q0 -10 -14 -18q-28 -12 -68 -12q-50 0 -83 27t-33 79q0 57 47 106q-103 13 -168 88t-65 180z" />
    <glyph glyph-name="uogonek" unicode="&#x173;" horiz-adv-x="493" 
d="M59 179v202q0 7 5.5 13t13.5 6h57q7 0 13 -6t6 -13v-201q0 -48 21.5 -74t60.5 -26t67.5 24t31.5 42v235q0 19 22 19h52q7 0 13 -6t6 -13v-362q0 -17 -18 -19q-47 -47 -47 -98q0 -26 17.5 -43t44.5 -17q21 0 50 12q8 3 13.5 -1.5t5.5 -13.5v-28q0 -10 -14 -18
q-28 -12 -68 -12q-50 0 -83 27t-33 79q0 67 68 124l-11 34l-5 -5q-5 -4 -8.5 -7t-11 -9t-14.5 -10t-18 -9t-21.5 -8t-24.5 -5t-29 -2q-85 0 -123.5 52t-38.5 137z" />
    <glyph glyph-name="Wcircumflex" unicode="&#x174;" horiz-adv-x="900" 
d="M222 4l-189 672q-3 10 2 17t16 7h67q14 0 18 -14l121 -459h4l163 472q4 11 17 11h18q13 0 17 -11l165 -472h4l119 459q4 14 18 14h67q11 0 16 -7t2 -17l-189 -672q-4 -14 -18 -14h-16q-13 0 -17 11l-176 497h-5l-173 -497q-4 -11 -17 -11h-16q-14 0 -18 14zM349 769
q-14 -8 -23 3l-20 27q-7 10 6 19l125 98q11 9 24 0l125 -98q13 -9 6 -19l-20 -27q-9 -12 -23 -3l-100 65z" />
    <glyph glyph-name="wcircumflex" unicode="&#x175;" horiz-adv-x="613" 
d="M146 0l-119 377q-5 10 -0.5 16.5t14.5 6.5h54q15 0 18 -12l67 -221h1l107 233q4 10 17 10h6q13 0 17 -10l106 -234h1l66 222q5 12 31 12h39q11 0 15 -6.5t0 -16.5l-117 -377q-3 -10 -18 -10h-4q-13 0 -17 9l-123 267h-1l-122 -267q-4 -9 -16 -9h-5q-14 0 -17 10zM184 542
l-20 27q-7 10 6 19l125 98q11 9 24 0l125 -98q13 -9 6 -19l-20 -27q-9 -12 -23 -3l-100 65l-100 -65q-14 -8 -23 3z" />
    <glyph glyph-name="Ycircumflex" unicode="&#x176;" horiz-adv-x="574" 
d="M234 19v318l-234 334q-6 10 -1 19.5t17 9.5h74q9 0 16 -9l181 -255l181 255q7 9 16 9h75q12 0 17 -9.5t-1 -19.5l-237 -333v-319q0 -7 -6 -13t-13 -6h-66q-8 0 -13.5 5.5t-5.5 13.5zM187 769q-14 -8 -23 3l-20 27q-7 10 6 19l125 98q11 9 24 0l125 -98q13 -9 6 -19
l-20 -27q-9 -12 -23 -3l-100 65z" />
    <glyph glyph-name="ycircumflex" unicode="&#x177;" horiz-adv-x="463" 
d="M185 14l-174 360q-5 10 0.5 18t16.5 8h66q12 0 17 -11l124 -266h1l120 266q5 11 21 11h57q12 0 17 -8t0 -18l-306 -662q-6 -12 -17 -12h-60q-11 0 -16.5 8.5t-0.5 18.5zM113 542l-20 27q-7 10 6 19l125 98q11 9 24 0l125 -98q13 -9 6 -19l-20 -27q-9 -12 -23 -3l-100 65
l-100 -65q-14 -8 -23 3z" />
    <glyph glyph-name="Ydieresis" unicode="&#x178;" horiz-adv-x="574" 
d="M234 19v318l-234 334q-6 10 -1 19.5t17 9.5h74q9 0 16 -9l181 -255l181 255q7 9 16 9h75q12 0 17 -9.5t-1 -19.5l-237 -333v-319q0 -7 -6 -13t-13 -6h-66q-8 0 -13.5 5.5t-5.5 13.5zM400 782q-23 0 -39.5 17t-16.5 40t16.5 39.5t39.5 16.5t40 -16.5t17 -39.5t-17 -40
t-40 -17zM171 782q-23 0 -39.5 17t-16.5 40t16.5 39.5t39.5 16.5t40 -16.5t17 -39.5t-17 -40t-40 -17z" />
    <glyph glyph-name="Zacute" unicode="&#x179;" horiz-adv-x="535" 
d="M27 19v18l330 563v4h-282q-7 0 -13 6t-6 13v58q0 7 6 13t13 6h411q8 0 13.5 -6t5.5 -13v-13l-331 -572v-1h292q8 0 13.5 -5.5t5.5 -13.5v-57q0 -8 -5.5 -13.5t-13.5 -5.5h-420q-8 0 -13.5 6t-5.5 13zM212 774q-18 -8 -24 5l-14 28q-6 12 6 19l157 91q4 4 13.5 3.5
t12.5 -6.5l23 -44q10 -16 -6 -24z" />
    <glyph glyph-name="zacute" unicode="&#x17a;" horiz-adv-x="364" 
d="M32 19v10l170 285v1h-142q-7 0 -12.5 5.5t-5.5 13.5v47q0 8 5 13.5t13 5.5h258q11 0 17 -8.5t0 -18.5l-169 -288v-1h132q19 0 19 -19v-46q0 -8 -5.5 -13.5t-13.5 -5.5h-247q-7 0 -13 6t-6 13zM122 543q-18 -9 -24 4l-14 29q-6 13 6 19l157 91q4 4 13.5 3.5t12.5 -6.5
l23 -44q8 -17 -6 -24z" />
    <glyph glyph-name="Zdotaccent" unicode="&#x17b;" horiz-adv-x="535" 
d="M27 19v18l330 563v4h-282q-7 0 -13 6t-6 13v58q0 7 6 13t13 6h411q8 0 13.5 -6t5.5 -13v-13l-331 -572v-1h292q8 0 13.5 -5.5t5.5 -13.5v-57q0 -8 -5.5 -13.5t-13.5 -5.5h-420q-8 0 -13.5 6t-5.5 13zM277 788q-26 0 -45 19t-19 46t19 45.5t45 18.5q27 0 46 -18.5
t19 -45.5t-19 -46t-46 -19z" />
    <glyph glyph-name="zdotaccent" unicode="&#x17c;" horiz-adv-x="364" 
d="M32 19v10l170 285v1h-142q-7 0 -12.5 5.5t-5.5 13.5v47q0 8 5 13.5t13 5.5h258q11 0 17 -8.5t0 -18.5l-169 -288v-1h132q19 0 19 -19v-46q0 -8 -5.5 -13.5t-13.5 -5.5h-247q-7 0 -13 6t-6 13zM190 551q-26 0 -45 19t-19 45q0 27 19 46t45 19q27 0 46 -19t19 -46
q0 -26 -19 -45t-46 -19z" />
    <glyph glyph-name="Zcaron" unicode="&#x17d;" horiz-adv-x="535" 
d="M27 19v18l330 563v4h-282q-7 0 -13 6t-6 13v58q0 7 6 13t13 6h411q8 0 13.5 -6t5.5 -13v-13l-331 -572v-1h292q8 0 13.5 -5.5t5.5 -13.5v-57q0 -8 -5.5 -13.5t-13.5 -5.5h-420q-8 0 -13.5 6t-5.5 13zM264 768l-125 98q-13 9 -6 19l20 27q9 11 23 3l100 -65l100 65
q14 9 23 -3l20 -27q7 -10 -6 -19l-125 -98q-13 -9 -24 0z" />
    <glyph glyph-name="zcaron" unicode="&#x17e;" horiz-adv-x="364" 
d="M32 19v10l170 285v1h-142q-7 0 -12.5 5.5t-5.5 13.5v47q0 8 5 13.5t13 5.5h258q11 0 17 -8.5t0 -18.5l-169 -288v-1h132q19 0 19 -19v-46q0 -8 -5.5 -13.5t-13.5 -5.5h-247q-7 0 -13 6t-6 13zM183 535l-125 98q-13 9 -6 19l20 27q9 11 23 3l100 -65l100 65q14 9 23 -3
l20 -27q7 -10 -6 -19l-125 -98q-13 -9 -24 0z" />
    <glyph glyph-name="florin" unicode="&#x192;" horiz-adv-x="346" 
d="M106 -124v442h-68q-8 0 -13.5 5.5t-5.5 13.5v44q0 19 19 19h68v124q0 89 49 137.5t124 48.5q63 0 111 -40q11 -11 4 -24l-27 -44q-9 -14 -25 -3q-30 23 -63 23t-54.5 -24.5t-21.5 -73.5v-124h108q19 0 19 -19v-44q0 -8 -5.5 -13.5t-13.5 -5.5h-108v-443q0 -89 -48.5 -137
t-124.5 -48q-66 0 -111 40q-11 11 -4 23l27 44q10 15 25 3q30 -23 63 -23t54.5 24.5t21.5 74.5z" />
    <glyph glyph-name="Aringacute" unicode="&#x1fa;" horiz-adv-x="662" 
d="M241 893l-14 28q-6 12 6 19l157 91q4 4 13.5 3.5t12.5 -6.5l23 -44q10 -16 -6 -24l-168 -72q-18 -8 -24 5zM20 0q-11 0 -16.5 8t-0.5 18l292 640q-33 12 -53 40.5t-20 64.5q0 47 32 79t79 32q46 0 78.5 -32.5t32.5 -78.5q0 -36 -21 -65t-54 -40l290 -640q5 -10 -0.5 -18
t-16.5 -8h-63q-16 0 -23 15l-62 137h-327l-61 -137q-6 -15 -23 -15h-63zM333 715q21 0 37 17t16 39t-15.5 37.5t-37.5 15.5q-23 0 -39.5 -15.5t-16.5 -37.5t16.5 -39t39.5 -17zM206 238h250l-123 274h-5z" />
    <glyph glyph-name="aringacute" unicode="&#x1fb;" horiz-adv-x="422" 
d="M36 124q0 56 42.5 92.5t117.5 36.5q19 0 38.5 -3t29.5 -6l11 -3q1 49 -12 68.5t-50 19.5q-49 0 -112 -18q-17 -4 -22 16l-8 37q-4 17 13 23q54 23 138 23q46 0 75.5 -13t43 -39.5t17.5 -54.5t4 -71v-213q0 -7 -6 -13t-13 -6h-28q-11 0 -17 14l-10 27q-53 -51 -123 -51
q-57 0 -93 36.5t-36 97.5zM123 125q0 -28 17 -46t44 -18q28 0 54 16.5t36 33.5v64q-24 16 -70 16q-36 0 -58.5 -18t-22.5 -48zM214 430q-46 0 -78.5 32t-32.5 79t32.5 79t78.5 32t78.5 -32.5t32.5 -78.5t-32.5 -78.5t-78.5 -32.5zM214 485q21 0 37 17t16 39t-15.5 37.5
t-37.5 15.5q-24 0 -40 -15.5t-16 -37.5t16 -39t40 -17zM145 660q-18 -9 -24 4l-14 29q-6 13 6 19l157 91q4 4 13.5 3.5t12.5 -6.5l23 -44q8 -17 -6 -24z" />
    <glyph glyph-name="AEacute" unicode="&#x1fc;" horiz-adv-x="897" 
d="M3 0q-11 0 -14.5 8t2.5 18l401 643q15 24 25 28q7 3 19 3h388q8 0 13.5 -5.5t5.5 -13.5v-56q0 -8 -5.5 -13.5t-13.5 -5.5h-320v-204h271q7 0 13 -6t6 -13v-56q0 -8 -5.5 -13.5t-13.5 -5.5h-271v-215h320q8 0 13.5 -5.5t5.5 -13.5v-55q0 -8 -5.5 -13.5t-13.5 -5.5h-401
q-8 0 -13.5 5.5t-5.5 13.5v133h-222l-87 -139q-9 -13 -22 -13h-70zM234 238h170v274zM544 775q-18 -8 -24 5l-14 28q-6 12 6 19l157 91q4 4 13.5 3.5t12.5 -6.5l23 -44q10 -16 -6 -24z" />
    <glyph glyph-name="aeacute" unicode="&#x1fd;" horiz-adv-x="677" 
d="M36 125q0 57 41 92.5t111 35.5l84 -6q-1 50 -11.5 68.5t-44.5 18.5q-48 0 -118 -20q-7 -1 -13.5 3t-8.5 12l-7 40q-1 15 16 20q69 21 138 21q89 0 117 -47q53 47 122 47q77 0 130.5 -52t53.5 -133q0 -44 -21 -44h-275q2 -43 35 -75.5t83 -32.5q45 0 89 27q20 11 27 1
q5 -6 14.5 -17.5t14.5 -17.5q11 -15 -3 -26q-58 -50 -148 -50q-94 0 -147 68q-20 -26 -58.5 -47t-85.5 -21q-60 0 -97.5 37t-37.5 98zM355 245h198q-1 37 -28 62.5t-65 25.5q-40 0 -70.5 -25.5t-34.5 -62.5zM123 126q0 -30 20 -46.5t48 -16.5q47 0 82 46v72q-28 10 -73 10
q-32 0 -54.5 -17.5t-22.5 -47.5zM332 543q-18 -9 -24 4l-14 29q-6 13 6 19l157 91q4 4 13.5 3.5t12.5 -6.5l23 -44q8 -17 -6 -24z" />
    <glyph glyph-name="Oslashacute" unicode="&#x1fe;" horiz-adv-x="811" 
d="M72 22q-14 14 -1 26l63 63q-88 101 -88 238q0 150 104.5 255.5t254.5 105.5q135 0 238 -90l66 65q13 13 26 0l7 -7q13 -13 0 -26l-65 -66q88 -103 88 -237q0 -150 -105 -254.5t-255 -104.5q-137 0 -237 87l-63 -63q-13 -12 -26 1zM207 183l365 366q-74 61 -167 61
q-106 0 -182.5 -77t-76.5 -184q0 -94 61 -166zM240 149q72 -59 165 -59q107 0 183.5 76t76.5 183q0 96 -60 165zM336 774q-18 -8 -24 5l-14 28q-6 12 6 19l157 91q4 4 13.5 3.5t12.5 -6.5l23 -44q10 -16 -6 -24z" />
    <glyph glyph-name="oslashacute" unicode="&#x1ff;" horiz-adv-x="473" 
d="M166 543q-18 -9 -24 4l-14 29q-6 13 6 19l157 91q4 4 13.5 3.5t12.5 -6.5l23 -44q8 -17 -6 -24zM59 26q-14 13 -1 26l19 19q-41 57 -41 131q0 85 58.5 146.5t142.5 61.5q71 0 127 -48l24 23q5 6 13 6t13 -6l8 -7q6 -5 6 -13t-6 -13l-25 -25q41 -55 41 -125
q0 -87 -59 -149.5t-142 -62.5q-73 0 -127 46l-18 -18q-12 -12 -27 1zM140 136l162 164q-28 23 -65 23q-47 0 -79.5 -35.5t-32.5 -85.5q0 -39 15 -66zM172 98q28 -22 65 -22q47 0 79.5 37t32.5 89q0 34 -15 61z" />
    <glyph glyph-name="Scommaaccent" unicode="&#x218;" horiz-adv-x="537" 
d="M58 69q-16 14 -6 32q4 7 13 21t13 20q16 23 34 8q83 -69 160 -69q51 0 82 27t31 66q0 43 -36.5 75t-114.5 64q-88 37 -135 84.5t-47 127.5q0 31 12.5 62t37 59.5t68.5 46t101 17.5q101 0 185 -59q20 -13 6 -34q-4 -6 -12.5 -19t-12.5 -19q-14 -23 -35 -10q-88 50 -135 50
q-57 0 -85 -28t-28 -62q0 -41 31 -70t96 -56q104 -42 159.5 -91.5t55.5 -132.5q0 -79 -63.5 -134t-159.5 -55q-55 0 -106.5 18t-73 33t-35.5 28zM279 -92q30 0 52 -22.5t22 -75.5q0 -60 -27.5 -107t-59.5 -76q-14 -12 -23 -1l-15 14q-9 11 5 24q64 51 65 124q-9 -3 -22 -3
q-25 0 -43.5 18t-18.5 43q0 26 19 44t46 18z" />
    <glyph glyph-name="scommaaccent" unicode="&#x219;" horiz-adv-x="358" 
d="M47 31q-12 8 -6 21l21 39q8 15 25 5q44 -26 93 -26t49 34q0 19 -16.5 32t-60.5 33q-114 50 -114 131q0 43 35 76.5t102 33.5q70 0 118 -31q18 -12 8 -29l-18 -34q-9 -16 -26 -8q-44 21 -82 21q-45 0 -45 -30q0 -18 14.5 -28.5t49.5 -25.5q67 -29 100 -58t33 -80
q0 -48 -41.5 -82.5t-106.5 -34.5q-81 0 -132 41zM183 -92q30 0 52 -22.5t22 -75.5q0 -60 -27.5 -107t-59.5 -76q-14 -12 -23 -1l-15 14q-9 11 5 24q64 51 65 124q-9 -3 -22 -3q-25 0 -43.5 18t-18.5 43q0 26 19 44t46 18z" />
    <glyph glyph-name="uni021A" unicode="&#x21a;" 
d="M193 19v587h-163q-8 0 -13.5 5.5t-5.5 13.5v56q0 8 5.5 13.5t13.5 5.5h430q8 0 13.5 -5.5t5.5 -13.5v-56q0 -8 -5.5 -13.5t-13.5 -5.5h-163v-587q0 -7 -5.5 -13t-13.5 -6h-66q-8 0 -13.5 6t-5.5 13zM242 -92q30 0 52 -22.5t22 -75.5q0 -60 -27.5 -107t-59.5 -76
q-14 -12 -23 -1l-15 14q-9 11 5 24q64 51 65 124q-9 -3 -22 -3q-25 0 -43.5 18t-18.5 43q0 26 19 44t46 18z" />
    <glyph glyph-name="uni021B" unicode="&#x21b;" horiz-adv-x="345" 
d="M90 109v208h-42q-8 0 -13.5 5.5t-5.5 13.5v45q0 19 19 19h42v111q0 7 6 13t13 6l57 1q7 0 12.5 -5.5t5.5 -13.5v-112h102q19 0 19 -19v-45q0 -8 -5.5 -13.5t-13.5 -5.5h-102v-198q0 -24 8 -32t24 -8q25 0 61 18q16 7 23 -9l18 -44q7 -16 -9 -24q-13 -8 -49.5 -19
t-67.5 -11q-56 0 -79 30.5t-23 88.5zM190 -92q30 0 52 -22.5t22 -75.5q0 -60 -27.5 -107t-59.5 -76q-14 -12 -23 -1l-15 14q-9 11 5 24q64 51 65 124q-9 -3 -22 -3q-25 0 -43.5 18t-18.5 43q0 26 19 44t46 18z" />
    <glyph glyph-name="dotlessj" unicode="&#x237;" horiz-adv-x="226" 
d="M65 -124v505q0 8 5.5 13.5t13.5 5.5h58q8 0 13.5 -5.5t5.5 -13.5v-505q0 -90 -47.5 -138t-122.5 -48q-72 0 -114 40q-12 9 -4 23l25 45q8 14 25 3q36 -25 66 -25q35 0 55.5 25.5t20.5 74.5z" />
    <glyph glyph-name="circumflex" unicode="&#x2c6;" horiz-adv-x="373" 
d="M61 542l-20 27q-7 10 6 19l125 98q11 9 24 0l125 -98q13 -9 6 -19l-20 -27q-9 -12 -23 -3l-100 65l-100 -65q-14 -8 -23 3z" />
    <glyph glyph-name="caron" unicode="&#x2c7;" horiz-adv-x="373" 
d="M172 535l-125 98q-13 9 -6 19l20 27q9 11 23 3l100 -65l100 65q14 9 23 -3l20 -27q7 -10 -6 -19l-125 -98q-13 -9 -24 0z" />
    <glyph glyph-name="uni02C9" unicode="&#x2c9;" horiz-adv-x="414" 
d="M79 576q-8 0 -13.5 5t-5.5 13v28q0 19 19 19h256q19 0 19 -19v-28q0 -8 -5.5 -13t-13.5 -5h-256z" />
    <glyph glyph-name="breve" unicode="&#x2d8;" horiz-adv-x="346" 
d="M173 529q-53 0 -91.5 33t-46.5 83q-3 21 16 21h29q14 0 18 -15q19 -59 75 -59q24 0 44 17t28 42q5 15 18 15h31q20 0 16 -21q-8 -50 -46.5 -83t-90.5 -33z" />
    <glyph glyph-name="dotaccent" unicode="&#x2d9;" horiz-adv-x="219" 
d="M108 551q-26 0 -45 19t-19 45q0 27 19 46t45 19q27 0 46 -19t19 -46q0 -26 -19 -45t-46 -19z" />
    <glyph glyph-name="ring" unicode="&#x2da;" horiz-adv-x="290" 
d="M145 488q-47 0 -79 32t-32 79t32 79t79 32q46 0 78.5 -32.5t32.5 -78.5t-32.5 -78.5t-78.5 -32.5zM145 543q21 0 37 17t16 39t-15.5 37.5t-37.5 15.5q-24 0 -40 -15.5t-16 -37.5t16 -39t40 -17z" />
    <glyph glyph-name="ogonek" unicode="&#x2db;" horiz-adv-x="276" 
d="M109 12h58q-7 -5 -17 -14.5t-27 -38.5t-17 -57q0 -26 17.5 -43t44.5 -17q21 0 50 12q8 3 13.5 -1.5t5.5 -13.5v-28q0 -10 -14 -18q-28 -12 -68 -12q-50 0 -83 27t-33 79q0 35 17.5 66t35.5 45z" />
    <glyph glyph-name="tilde" unicode="&#x2dc;" horiz-adv-x="380" 
d="M67 568l-23 15q-13 8 -6 23q42 84 98 84q25 0 45.5 -16t35.5 -32t28 -16q8 0 15 4.5t10.5 9.5t8.5 14t7 12q10 17 25 9q1 0 11.5 -7t14.5 -12q5 -9 -3 -27q-34 -75 -94 -75q-28 0 -61.5 32.5t-45.5 32.5q-24 0 -43 -41q-8 -18 -23 -10z" />
    <glyph glyph-name="hungarumlaut" unicode="&#x2dd;" horiz-adv-x="392" 
d="M232 521q-11 0 -16 5.5t-3 13.5l44 141q6 19 19 19h57q14 0 19 -8t-1 -17l-78 -139q-7 -15 -18 -15h-23zM66 521q-11 0 -16 5.5t-3 13.5l44 141q6 19 19 19h57q14 0 19 -7.5t-1 -17.5l-78 -139q-7 -15 -18 -15h-23z" />
    <glyph glyph-name="uni0394" unicode="&#x394;" horiz-adv-x="694" 
d="M28 41l301 662q5 9 15 9h6q10 0 15 -9l300 -664q7 -13 3 -26t-22 -13h-596q-41 0 -22 41zM162 95l369 1l-184 419h-2z" />
    <glyph glyph-name="uni03A9" unicode="&#x3a9;" horiz-adv-x="781" 
d="M41 16v64q0 16 16 16h102q-58 37 -93.5 108t-35.5 150q0 150 105 253t255 103t255 -103t105 -253q0 -78 -36 -149.5t-94 -108.5h102q16 0 16 -16v-64q0 -6 -4.5 -11t-11.5 -5h-259q-7 0 -11.5 5t-4.5 11v41q0 14 4.5 19.5t15.5 10.5q82 32 131.5 104.5t49.5 157.5
q0 106 -76.5 183.5t-181.5 77.5q-106 0 -183 -77.5t-77 -183.5q0 -85 50 -157.5t132 -104.5q11 -5 15.5 -10.5t4.5 -19.5v-41q0 -6 -4.5 -11t-11.5 -5h-259q-7 0 -11.5 5t-4.5 11z" />
    <glyph glyph-name="uni03BC" unicode="&#x3bc;" horiz-adv-x="513" 
d="M161 1v-282q0 -7 -5.5 -13t-13.5 -6h-56q-8 0 -13.5 6t-5.5 13v662q0 7 5.5 13t13.5 6h57q7 0 13 -6t6 -13v-201q0 -48 21.5 -74t60.5 -26t67.5 24t31.5 42v235q0 19 22 19h52q7 0 13 -6t6 -13v-362q0 -7 -6 -13t-13 -6h-28q-13 0 -18 16l-10 29l-5 -5q-5 -4 -8.5 -7
t-11 -9t-14.5 -10t-18 -9t-21.5 -8t-24.5 -5t-29 -2q-38 0 -68 11z" />
    <glyph glyph-name="pi" unicode="&#x3c0;" horiz-adv-x="655" 
d="M129 16v301h-91q-16 0 -16 16v51q0 16 16 16h567q16 0 16 -16v-51q0 -16 -16 -16h-94v-301q0 -7 -5 -11.5t-12 -4.5h-64q-7 0 -11.5 5t-4.5 11v301h-188v-301q0 -7 -5 -11.5t-12 -4.5h-64q-6 0 -11 5t-5 11z" />
    <glyph glyph-name="Wgrave" unicode="&#x1e80;" horiz-adv-x="900" 
d="M222 4l-189 672q-3 10 2 17t16 7h67q14 0 18 -14l121 -459h4l163 472q4 11 17 11h18q13 0 17 -11l165 -472h4l119 459q4 14 18 14h67q11 0 16 -7t2 -17l-189 -672q-4 -14 -18 -14h-16q-13 0 -17 11l-176 497h-5l-173 -497q-4 -11 -17 -11h-16q-14 0 -18 14zM517 774
l-168 72q-14 7 -6 24l23 44q3 6 12.5 6.5t13.5 -3.5l157 -91q12 -6 6 -19l-14 -28q-6 -13 -24 -5z" />
    <glyph glyph-name="wgrave" unicode="&#x1e81;" horiz-adv-x="613" 
d="M146 0l-119 377q-5 10 -0.5 16.5t14.5 6.5h54q15 0 18 -12l67 -221h1l107 233q4 10 17 10h6q13 0 17 -10l106 -234h1l66 222q5 12 31 12h39q11 0 15 -6.5t0 -16.5l-117 -377q-3 -10 -18 -10h-4q-13 0 -17 9l-123 267h-1l-122 -267q-4 -9 -16 -9h-5q-14 0 -17 10zM376 543
l-168 72q-14 7 -6 24l23 44q3 6 12.5 6.5t13.5 -3.5l157 -91q12 -6 6 -19l-14 -29q-6 -13 -24 -4z" />
    <glyph glyph-name="Wacute" unicode="&#x1e82;" horiz-adv-x="900" 
d="M222 4l-189 672q-3 10 2 17t16 7h67q14 0 18 -14l121 -459h4l163 472q4 11 17 11h18q13 0 17 -11l165 -472h4l119 459q4 14 18 14h67q11 0 16 -7t2 -17l-189 -672q-4 -14 -18 -14h-16q-13 0 -17 11l-176 497h-5l-173 -497q-4 -11 -17 -11h-16q-14 0 -18 14zM380 774
q-18 -8 -24 5l-14 28q-6 12 6 19l157 91q4 4 13.5 3.5t12.5 -6.5l23 -44q10 -16 -6 -24z" />
    <glyph glyph-name="wacute" unicode="&#x1e83;" horiz-adv-x="613" 
d="M146 0l-119 377q-5 10 -0.5 16.5t14.5 6.5h54q15 0 18 -12l67 -221h1l107 233q4 10 17 10h6q13 0 17 -10l106 -234h1l66 222q5 12 31 12h39q11 0 15 -6.5t0 -16.5l-117 -377q-3 -10 -18 -10h-4q-13 0 -17 9l-123 267h-1l-122 -267q-4 -9 -16 -9h-5q-14 0 -17 10zM238 543
q-18 -9 -24 4l-14 29q-6 13 6 19l157 91q4 4 13.5 3.5t12.5 -6.5l23 -44q8 -17 -6 -24z" />
    <glyph glyph-name="Wdieresis" unicode="&#x1e84;" horiz-adv-x="900" 
d="M222 4l-189 672q-3 10 2 17t16 7h67q14 0 18 -14l121 -459h4l163 472q4 11 17 11h18q13 0 17 -11l165 -472h4l119 459q4 14 18 14h67q11 0 16 -7t2 -17l-189 -672q-4 -14 -18 -14h-16q-13 0 -17 11l-176 497h-5l-173 -497q-4 -11 -17 -11h-16q-14 0 -18 14zM563 782
q-23 0 -39.5 17t-16.5 40t16.5 39.5t39.5 16.5t40 -16.5t17 -39.5t-17 -40t-40 -17zM334 782q-23 0 -39.5 17t-16.5 40t16.5 39.5t39.5 16.5t40 -16.5t17 -39.5t-17 -40t-40 -17z" />
    <glyph glyph-name="wdieresis" unicode="&#x1e85;" horiz-adv-x="613" 
d="M146 0l-119 377q-5 10 -0.5 16.5t14.5 6.5h54q15 0 18 -12l67 -221h1l107 233q4 10 17 10h6q13 0 17 -10l106 -234h1l66 222q5 12 31 12h39q11 0 15 -6.5t0 -16.5l-117 -377q-3 -10 -18 -10h-4q-13 0 -17 9l-123 267h-1l-122 -267q-4 -9 -16 -9h-5q-14 0 -17 10zM404 567
q-23 0 -39.5 16.5t-16.5 39.5q0 24 16.5 40.5t39.5 16.5q24 0 40.5 -16.5t16.5 -40.5q0 -23 -16.5 -39.5t-40.5 -16.5zM207 567q-23 0 -39.5 16.5t-16.5 39.5q0 24 16.5 40.5t39.5 16.5q24 0 40.5 -16.5t16.5 -40.5q0 -23 -16.5 -39.5t-40.5 -16.5z" />
    <glyph glyph-name="Ygrave" unicode="&#x1ef2;" horiz-adv-x="574" 
d="M234 19v318l-234 334q-6 10 -1 19.5t17 9.5h74q9 0 16 -9l181 -255l181 255q7 9 16 9h75q12 0 17 -9.5t-1 -19.5l-237 -333v-319q0 -7 -6 -13t-13 -6h-66q-8 0 -13.5 5.5t-5.5 13.5zM356 774l-168 72q-14 7 -6 24l23 44q3 6 12.5 6.5t13.5 -3.5l157 -91q12 -6 6 -19
l-14 -28q-6 -13 -24 -5z" />
    <glyph glyph-name="ygrave" unicode="&#x1ef3;" horiz-adv-x="463" 
d="M185 14l-174 360q-5 10 0.5 18t16.5 8h66q12 0 17 -11l124 -266h1l120 266q5 11 21 11h57q12 0 17 -8t0 -18l-306 -662q-6 -12 -17 -12h-60q-11 0 -16.5 8.5t-0.5 18.5zM303 543l-168 72q-14 7 -6 24l23 44q3 6 12.5 6.5t13.5 -3.5l157 -91q12 -6 6 -19l-14 -29
q-6 -13 -24 -4z" />
    <glyph glyph-name="endash" unicode="&#x2013;" horiz-adv-x="552" 
d="M85 276q-8 0 -13.5 5t-5.5 13v24q0 19 19 19h382q19 0 19 -19v-24q0 -8 -5.5 -13t-13.5 -5h-382z" />
    <glyph glyph-name="emdash" unicode="&#x2014;" horiz-adv-x="772" 
d="M85 276q-8 0 -13.5 5t-5.5 13v24q0 19 19 19h602q19 0 19 -19v-24q0 -8 -5.5 -13t-13.5 -5h-602z" />
    <glyph glyph-name="quoteleft" unicode="&#x2018;" horiz-adv-x="201" 
d="M105 420q-30 0 -52 23t-22 76q0 59 27.5 107t59.5 76q14 12 23 1l15 -15q9 -11 -5 -23q-64 -58 -65 -124q9 3 22 3q25 0 43.5 -18.5t18.5 -43.5q0 -26 -19 -44t-46 -18z" />
    <glyph glyph-name="quoteright" unicode="&#x2019;" horiz-adv-x="198" 
d="M60 428l-14 14q-10 10 4 24q65 52 65 124q-6 -3 -21 -3q-26 0 -44 18t-18 43q0 26 18.5 44t45.5 18q31 0 53 -23t22 -75q0 -60 -27.5 -107t-59.5 -76q-13 -12 -24 -1z" />
    <glyph glyph-name="quotesinglbase" unicode="&#x201a;" horiz-adv-x="230" 
d="M46 52q0 26 19 44t46 18q30 0 52 -23t22 -76q0 -102 -87 -183q-14 -11 -23 0l-15 14q-10 12 5 23q64 51 65 124l-8 -1q-8 -2 -14 -2q-25 0 -43.5 18.5t-18.5 43.5z" />
    <glyph glyph-name="quotedblleft" unicode="&#x201c;" horiz-adv-x="387" 
d="M292 422q-30 0 -52.5 23t-22.5 76q0 102 87 183q14 10 24 0l14 -14q10 -10 -4 -23q-65 -53 -65 -124l7 1q8 2 14 2q26 0 44 -18t18 -44t-18.5 -44t-45.5 -18zM105 422q-30 0 -52 23t-22 76q0 102 87 183q14 11 23 0l15 -14q10 -12 -5 -23q-64 -58 -65 -124l8 1q8 2 14 2
q25 0 43.5 -18.5t18.5 -43.5q0 -26 -19 -44t-46 -18z" />
    <glyph glyph-name="quotedblright" unicode="&#x201d;" horiz-adv-x="384" 
d="M247 428l-15 14q-9 11 5 24q64 51 65 124q-9 -3 -22 -3q-25 0 -43.5 18t-18.5 43q0 26 19 44t46 18q30 0 52 -22.5t22 -75.5q0 -60 -27.5 -107t-59.5 -76q-14 -12 -23 -1zM60 428l-14 14q-10 10 4 24q65 52 65 124q-6 -3 -21 -3q-26 0 -44 18t-18 43q0 26 18.5 44
t45.5 18q31 0 53 -23t22 -75q0 -60 -27.5 -107t-59.5 -76q-13 -12 -24 -1z" />
    <glyph glyph-name="quotedblbase" unicode="&#x201e;" horiz-adv-x="416" 
d="M232 52q0 26 19 44t46 18q30 0 52 -23t22 -76q0 -102 -87 -183q-14 -11 -23 0l-15 14q-10 12 5 23q64 51 65 124l-8 -1q-8 -2 -14 -2q-25 0 -43.5 18.5t-18.5 43.5zM46 52q0 26 18.5 44t45.5 18q30 0 52.5 -23t22.5 -76q0 -102 -87 -183q-14 -10 -24 0l-14 14
q-10 10 4 23q65 52 65 124l-7 -1q-8 -2 -14 -2q-26 0 -44 18t-18 44z" />
    <glyph glyph-name="dagger" unicode="&#x2020;" horiz-adv-x="618" 
d="M69 310q-7 0 -13 6t-6 13v52q0 7 6 13t13 6h182v281q0 7 5.5 13t13.5 6h73q7 0 13 -6t6 -13v-281h188q7 0 12.5 -5.5t5.5 -13.5v-52q0 -8 -5.5 -13.5t-12.5 -5.5h-192l-25 -594q0 -6 -6 -11t-13 -5h-15q-7 0 -13 5t-6 11l-24 594h-187z" />
    <glyph glyph-name="daggerdbl" unicode="&#x2021;" horiz-adv-x="618" 
d="M80 19v52q0 7 6 13t13 6h164l-12 308v1h-182q-7 0 -13 5.5t-6 13.5v52q0 8 6 13.5t13 5.5h182v192q0 7 5.5 13t13.5 6h73q7 0 13 -6t6 -13v-192h188q7 0 12.5 -5.5t5.5 -13.5v-52q0 -8 -5.5 -13.5t-12.5 -5.5h-188l-12 -309h170q7 0 12.5 -5.5t5.5 -13.5v-52
q0 -8 -5.5 -13.5t-12.5 -5.5h-175l-12 -284q0 -6 -6 -11t-13 -5h-15q-7 0 -13 5t-6 11l-12 284h-169q-7 0 -13 6t-6 13z" />
    <glyph glyph-name="bullet" unicode="&#x2022;" horiz-adv-x="371" 
d="M183 167q-47 0 -82 34.5t-35 82.5q0 49 35 85t82 36q50 0 85.5 -35.5t35.5 -85.5q0 -48 -35.5 -82.5t-85.5 -34.5z" />
    <glyph glyph-name="ellipsis" unicode="&#x2026;" horiz-adv-x="646" 
d="M463 54q0 27 19 46t46 19t45.5 -19t18.5 -46q0 -26 -18.5 -45t-45.5 -19t-46 19t-19 45zM258 54q0 27 19 46t45 19q27 0 46 -19t19 -46q0 -26 -19 -45t-46 -19q-26 0 -45 19t-19 45zM53 54q0 27 19 46t45 19q27 0 46 -19t19 -46q0 -26 -19 -45t-46 -19q-26 0 -45 19
t-19 45z" />
    <glyph glyph-name="perthousand" unicode="&#x2030;" horiz-adv-x="986" 
d="M181 441q-56 0 -95.5 39.5t-39.5 95.5t39.5 95.5t95.5 39.5t95.5 -39.5t39.5 -95.5t-39.5 -95.5t-95.5 -39.5zM134 27l343 663q7 10 17 10h33q11 0 16.5 -8.5t0.5 -18.5l-345 -663q-5 -10 -17 -10h-31q-11 0 -16.5 8.5t-0.5 18.5zM181 512q26 0 44 18.5t18 45.5
q0 25 -18.5 43.5t-43.5 18.5q-26 0 -44.5 -18.5t-18.5 -43.5q0 -27 18.5 -45.5t44.5 -18.5zM675 124q0 56 39.5 95.5t95.5 39.5t96 -39.5t40 -95.5t-40 -95.5t-96 -39.5t-95.5 39.5t-39.5 95.5zM369 124q0 56 39.5 95.5t95.5 39.5t95.5 -39.5t39.5 -95.5t-39.5 -95.5
t-95.5 -39.5t-95.5 39.5t-39.5 95.5zM747 124q0 -26 18.5 -44.5t44.5 -18.5t44.5 18.5t18.5 44.5q0 25 -18.5 43.5t-44.5 18.5t-44.5 -18t-18.5 -44zM440 124q0 -26 18.5 -44.5t45.5 -18.5q25 0 43.5 18.5t18.5 44.5q0 25 -18.5 43.5t-43.5 18.5q-27 0 -45.5 -18t-18.5 -44z
" />
    <glyph glyph-name="guilsinglleft" unicode="&#x2039;" horiz-adv-x="262" 
d="M139 39l-104 155q-8 11 0 24l109 148q7 12 18 12h35q13 0 17 -9.5t-2 -21.5l-71 -139l68 -147q6 -12 1.5 -21t-16.5 -9h-40q-9 0 -15 8z" />
    <glyph glyph-name="guilsinglright" unicode="&#x203a;" horiz-adv-x="262" 
d="M67 31q-12 0 -16.5 9t1.5 21l68 147l-71 139q-6 12 -2 21.5t17 9.5h35q11 0 18 -12l109 -148q8 -13 0 -24l-104 -155q-6 -8 -15 -8h-40z" />
    <glyph glyph-name="fraction" unicode="&#x2044;" horiz-adv-x="136" 
d="M-62 10q-5 -10 -17 -10h-31q-11 0 -16.5 8.5t-0.5 18.5l343 663q7 10 17 10h33q11 0 16.5 -8.5t0.5 -18.5z" />
    <glyph glyph-name="zerosuperior" unicode="&#x2070;" horiz-adv-x="352" 
d="M176 495q-60 0 -93 41.5t-33 115.5q0 75 33 116.5t93 41.5t93 -41.5t33 -116.5q0 -74 -33 -115.5t-93 -41.5zM176 556q26 0 41 25t15 71t-15 71.5t-41 25.5q-55 0 -55 -97q0 -96 55 -96z" />
    <glyph glyph-name="foursuperior" unicode="&#x2074;" horiz-adv-x="365" 
d="M212 504q-10 0 -10 9v49h-143q-9 0 -9 8v40l167 187q3 3 8 3h31q10 0 10 -9v-178h40q9 0 9 -8v-34q0 -9 -9 -9h-40v-49q0 -9 -10 -9h-44zM114 613h90v101z" />
    <glyph glyph-name="fivesuperior" unicode="&#x2075;" horiz-adv-x="324" 
d="M153 494q-62 0 -97 38q-7 8 -1 15l24 26q7 7 14 1q24 -24 62 -24q23 0 39 14t16 34t-15 32.5t-42 12.5h-76q-15 0 -15 16v132q0 9 9 9h158q9 0 9 -9v-36q0 -8 -9 -8h-110v-50h42q54 0 84 -26.5t30 -71.5t-34.5 -75t-87.5 -30z" />
    <glyph glyph-name="sixsuperior" unicode="&#x2076;" horiz-adv-x="329" 
d="M167 494q-55 0 -86 36.5t-31 92.5q0 44 19.5 80.5t49 59t52.5 34t42 17.5q11 5 15 -7l12 -28q4 -11 -9 -15q-28 -8 -64 -30.5t-46 -53.5q23 15 59 15q40 0 69.5 -25.5t29.5 -71.5q0 -43 -33 -73.5t-79 -30.5zM167 552q21 0 35.5 13.5t14.5 33.5t-15 34t-36 14
q-18 0 -34 -10.5t-21 -21.5q1 -23 16.5 -43t39.5 -20z" />
    <glyph glyph-name="sevensuperior" unicode="&#x2077;" horiz-adv-x="320" 
d="M73 504q-10 0 -10 7v7l124 227h-126q-9 0 -9 9v37q0 9 9 9h200q9 0 9 -9v-13l-137 -265q-5 -9 -14 -9h-46z" />
    <glyph glyph-name="eightsuperior" unicode="&#x2078;" horiz-adv-x="331" 
d="M164 494q-51 0 -82.5 24.5t-31.5 61.5q0 28 20.5 48.5t37.5 27.5v1q-50 23 -50 70q0 37 30.5 60t76.5 23t77 -23t31 -60q0 -24 -16 -43t-35 -27v-1q22 -9 40.5 -28.5t18.5 -47.5q0 -37 -32 -61.5t-85 -24.5zM165 684q40 6 40 37q0 14 -12 24.5t-29 10.5q-16 0 -27 -10.5
t-11 -24.5q0 -31 39 -37zM165 548q19 0 32.5 10t13.5 26q0 15 -12 27t-34 15q-20 -3 -32.5 -15t-12.5 -27q0 -16 13.5 -26t31.5 -10z" />
    <glyph glyph-name="ninesuperior" unicode="&#x2079;" horiz-adv-x="329" 
d="M115 487q-10 -3 -15 7l-11 29q-6 11 9 14q28 8 63.5 31t46.5 53q-30 -15 -60 -15q-40 0 -69 26t-29 72q0 43 33 73.5t79 30.5q55 0 86 -36.5t31 -92.5q0 -44 -19.5 -80.5t-49.5 -59t-52.5 -34.5t-42.5 -18zM162 655q37 0 56 32q-1 23 -16.5 43t-40.5 20q-21 0 -35.5 -14
t-14.5 -34q0 -19 15 -33t36 -14z" />
    <glyph glyph-name="zeroinferior" unicode="&#x2080;" horiz-adv-x="352" 
d="M50 -3q0 75 33 117t93 42t93 -42t33 -117q0 -74 -33 -115.5t-93 -41.5t-93 41.5t-33 115.5zM121 -3q0 -96 55 -96q26 0 41 25t15 71t-15 72t-41 26t-40.5 -25.5t-14.5 -72.5z" />
    <glyph glyph-name="oneinferior" unicode="&#x2081;" horiz-adv-x="226" 
d="M54 59l-4 24q0 6 5 11l72 52h40q9 0 9 -9v-278q0 -9 -9 -9h-49q-10 0 -10 9v201l-45 -7q-9 -2 -9 6z" />
    <glyph glyph-name="twoinferior" unicode="&#x2082;" horiz-adv-x="314" 
d="M81 74l-21 26q-7 10 2 16q40 40 95 40q50 0 78.5 -25.5t28.5 -65.5t-43 -88l-67 -73h100q9 0 9 -10v-35q0 -9 -9 -9h-194q-10 0 -10 9v15l118 130q29 31 29 53q0 16 -13 28.5t-36 12.5q-28 0 -53 -25q-7 -7 -14 1z" />
    <glyph glyph-name="threeinferior" unicode="&#x2083;" horiz-adv-x="318" 
d="M95 13q0 12 13 12h30q25 0 39 10.5t14 26.5q0 17 -13.5 27.5t-32.5 10.5q-26 0 -48 -20q-7 -6 -14 1l-22 24q-9 9 1 15q35 36 91 36q46 0 76 -22.5t30 -60.5q0 -24 -15.5 -43t-35.5 -27v-2q22 -9 41 -28.5t19 -46.5q0 -39 -32.5 -62.5t-82.5 -23.5q-62 0 -99 37
q-8 6 0 14l21 25q7 7 15 0l3 -2l6 -4t9 -5t11.5 -5t13 -3.5t14.5 -1.5q22 0 36.5 10.5t14.5 27.5q0 18 -15.5 29.5t-44.5 11.5h-30q-13 0 -13 11v28z" />
    <glyph glyph-name="fourinferior" unicode="&#x2084;" horiz-adv-x="365" 
d="M50 -44l167 187q3 3 8 3h31q10 0 10 -9v-178h40q9 0 9 -8v-34q0 -9 -9 -9h-40v-49q0 -9 -10 -9h-44q-10 0 -10 9v49h-143q-9 0 -9 8v40zM114 -41h90v101z" />
    <glyph glyph-name="fiveinferior" unicode="&#x2085;" horiz-adv-x="324" 
d="M62 5v132q0 9 9 9h158q9 0 9 -9v-36q0 -8 -9 -8h-110v-50h42q54 0 84 -26.5t30 -71.5t-34.5 -75t-87.5 -30q-62 0 -97 38q-7 8 -1 15l24 26q7 7 14 1q24 -24 62 -24q23 0 39 14t16 34t-15 32.5t-42 12.5h-76q-15 0 -15 16z" />
    <glyph glyph-name="sixinferior" unicode="&#x2086;" horiz-adv-x="329" 
d="M50 -31q0 44 19.5 80.5t49 59t52.5 34t42 17.5q11 5 15 -7l12 -28q4 -11 -9 -15q-28 -8 -64 -30.5t-46 -53.5q23 15 59 15q40 0 69.5 -25.5t29.5 -71.5q0 -43 -33 -73.5t-79 -30.5q-55 0 -86 36.5t-31 92.5zM111 -39q1 -23 16.5 -43t39.5 -20q21 0 35.5 13.5t14.5 33.5
t-15 34t-36 14q-18 0 -34 -10.5t-21 -21.5z" />
    <glyph glyph-name="seveninferior" unicode="&#x2087;" horiz-adv-x="320" 
d="M61 91q-9 0 -9 9v37q0 9 9 9h200q9 0 9 -9v-13l-137 -265q-5 -9 -14 -9h-46q-10 0 -10 7v7l124 227h-126z" />
    <glyph glyph-name="eightinferior" unicode="&#x2088;" horiz-adv-x="331" 
d="M50 -74q0 28 20.5 48.5t37.5 27.5v1q-19 8 -34.5 26.5t-15.5 43.5q0 37 30.5 60t76.5 23t77 -23t31 -60q0 -24 -16 -43t-35 -27v-1q22 -9 40.5 -28.5t18.5 -47.5q0 -37 -32 -61.5t-85 -24.5q-51 0 -82.5 24.5t-31.5 61.5zM126 67q0 -31 39 -37q40 6 40 37q0 14 -12 24.5
t-29 10.5q-16 0 -27 -10.5t-11 -24.5zM120 -70q0 -16 13.5 -26t31.5 -10q19 0 32.5 10t13.5 26q0 15 -12 27t-34 15q-20 -3 -32.5 -15t-12.5 -27z" />
    <glyph glyph-name="nineinferior" unicode="&#x2089;" horiz-adv-x="329" 
d="M50 50q0 43 33 73.5t79 30.5q55 0 86 -36.5t31 -92.5q0 -44 -19.5 -80.5t-49.5 -59t-52.5 -34.5t-42.5 -18q-10 -3 -15 7l-11 29q-6 11 9 14q28 8 63.5 31t46.5 53q-30 -15 -60 -15q-40 0 -69 26t-29 72zM111 48q0 -19 15 -33t36 -14q37 0 56 32q-1 23 -16.5 43t-40.5 20
q-21 0 -35.5 -14t-14.5 -34z" />
    <glyph glyph-name="Euro" unicode="&#x20ac;" horiz-adv-x="724" 
d="M38 251q-7 0 -12.5 5.5t-5.5 13.5v10q0 8 5.5 13.5t12.5 5.5h39q-3 24 -3 50q0 15 1 22h-37q-7 0 -12.5 5.5t-5.5 13.5v10q0 8 5.5 13.5t12.5 5.5h43q24 126 123.5 208.5t230.5 82.5q135 0 242 -93q15 -14 1 -28l-42 -43q-13 -15 -30 0q-70 65 -170 65
q-88 0 -154.5 -54.5t-87.5 -137.5h257q8 0 13.5 -5.5t5.5 -13.5v-11q0 -8 -5.5 -13t-13.5 -5h-265q-1 -7 -1 -20q0 -31 5 -52h221q8 0 13.5 -5.5t5.5 -13.5v-11q0 -8 -5.5 -13t-13.5 -5h-206q28 -71 90.5 -115t141.5 -44q86 0 172 66q13 10 24 1l46 -45q6 -6 5.5 -13.5
t-6.5 -13.5q-100 -97 -243 -97q-123 0 -219 73t-128 188h-50z" />
    <glyph glyph-name="afii61289" unicode="&#x2113;" horiz-adv-x="505" 
d="M101 151q0 29 5 64q-25 -8 -48 -12q-13 -1 -16 10l-4 29q-2 18 14 20q42 8 67 16q9 53 16 90q33 170 82 256t123 86q52 0 82 -36t30 -98q0 -122 -80.5 -208t-203.5 -132q-10 -43 -10 -83q0 -45 19.5 -74.5t61.5 -29.5q80 0 152 44q17 10 24 -3l11 -19q4 -7 5 -10
t-0.5 -6.5t-6.5 -7.5q-10 -8 -29 -18.5t-64.5 -24.5t-91.5 -14q-71 0 -104.5 46t-33.5 115zM180 296q95 42 154.5 113t59.5 167q0 35 -14.5 55.5t-39.5 20.5q-91 0 -148 -294z" />
    <glyph glyph-name="trademark" unicode="&#x2122;" horiz-adv-x="721" 
d="M334 391q-10 0 -15.5 7t-3.5 16l52 276q4 15 19 15h4q13 0 17 -11l84 -199l86 199q4 11 17 11h4q15 0 19 -15l53 -277q1 -9 -4.5 -15.5t-14.5 -6.5h-26q-15 0 -19 17l-28 145l-68 -156q-4 -9 -16 -9h-6q-12 0 -17 10l-65 155l-30 -146q-1 -6 -7 -11t-12 -5h-23zM151 391
q-8 0 -13.5 5.5t-5.5 13.5v228h-67q-8 0 -13.5 5.5t-5.5 13.5v24q0 7 6 13t13 6h198q8 0 13.5 -5.5t5.5 -13.5v-24q0 -19 -19 -19h-67v-228q0 -8 -6 -13.5t-13 -5.5h-26z" />
    <glyph glyph-name="Omega" unicode="&#x2126;" horiz-adv-x="781" 
d="M41 16v64q0 16 16 16h102q-58 37 -93.5 108t-35.5 150q0 150 105 253t255 103t255 -103t105 -253q0 -78 -36 -149.5t-94 -108.5h102q16 0 16 -16v-64q0 -6 -4.5 -11t-11.5 -5h-259q-7 0 -11.5 5t-4.5 11v41q0 14 4.5 19.5t15.5 10.5q82 32 131.5 104.5t49.5 157.5
q0 106 -76.5 183.5t-181.5 77.5q-106 0 -183 -77.5t-77 -183.5q0 -85 50 -157.5t132 -104.5q11 -5 15.5 -10.5t4.5 -19.5v-41q0 -6 -4.5 -11t-11.5 -5h-259q-7 0 -11.5 5t-4.5 11z" />
    <glyph glyph-name="estimated" unicode="&#x212e;" horiz-adv-x="823" 
d="M147 162q38 -54 105 -85t141 -31q112 0 207 84q14 13 26 1l16 -18q10 -10 -5 -25q-104 -98 -244 -98q-152 0 -257.5 104t-105.5 255q0 152 105.5 256.5t257.5 104.5q151 0 256.5 -105t106.5 -257q0 -27 -22 -27h-587v-159zM147 375h492v160q-42 55 -106.5 86.5
t-139.5 31.5q-77 0 -141 -30t-105 -86v-162z" />
    <glyph glyph-name="onethird" unicode="&#x2153;" horiz-adv-x="654" 
d="M110 27l343 663q7 10 17 10h33q11 0 16.5 -8.5t0.5 -18.5l-345 -663q-5 -10 -17 -10h-31q-11 0 -16.5 8.5t-0.5 18.5zM118 404q-10 0 -10 9v201l-45 -7q-9 -2 -9 6l-4 24q0 6 5 11l72 52h40q9 0 9 -9v-278q0 -9 -9 -9h-49zM396 27q-8 6 0 14l21 25q7 7 15 0l3 -2l6 -4
t9 -5t11.5 -5t13 -3.5t14.5 -1.5q22 0 36.5 10.5t14.5 27.5q0 18 -15.5 29.5t-44.5 11.5h-30q-13 0 -13 11v28q0 12 13 12h30q25 0 39 10.5t14 26.5q0 17 -13.5 27.5t-32.5 10.5q-26 0 -48 -20q-7 -6 -14 1l-22 24q-9 9 1 15q35 36 91 36q46 0 76 -22.5t30 -60.5
q0 -24 -15.5 -43t-35.5 -27v-2q22 -9 41 -28.5t19 -46.5q0 -39 -32.5 -62.5t-82.5 -23.5q-62 0 -99 37z" />
    <glyph glyph-name="twothirds" unicode="&#x2154;" horiz-adv-x="654" 
d="M14 404q-10 0 -10 9v15l118 130q29 31 29 53q0 16 -13 28.5t-36 12.5q-28 0 -53 -25q-7 -7 -14 1l-21 26q-7 10 2 16q40 40 95 40q50 0 78.5 -25.5t28.5 -65.5t-43 -88l-67 -73h100q9 0 9 -10v-35q0 -9 -9 -9h-194zM110 27l343 663q7 10 17 10h33q11 0 16.5 -8.5
t0.5 -18.5l-345 -663q-5 -10 -17 -10h-31q-11 0 -16.5 8.5t-0.5 18.5zM396 27q-8 6 0 14l21 25q7 7 15 0l3 -2l6 -4t9 -5t11.5 -5t13 -3.5t14.5 -1.5q22 0 36.5 10.5t14.5 27.5q0 18 -15.5 29.5t-44.5 11.5h-30q-13 0 -13 11v28q0 12 13 12h30q25 0 39 10.5t14 26.5
q0 17 -13.5 27.5t-32.5 10.5q-26 0 -48 -20q-7 -6 -14 1l-22 24q-9 9 1 15q35 36 91 36q46 0 76 -22.5t30 -60.5q0 -24 -15.5 -43t-35.5 -27v-2q22 -9 41 -28.5t19 -46.5q0 -39 -32.5 -62.5t-82.5 -23.5q-62 0 -99 37z" />
    <glyph glyph-name="oneeighth" unicode="&#x215b;" horiz-adv-x="670" 
d="M110 27l343 663q7 10 17 10h33q11 0 16.5 -8.5t0.5 -18.5l-345 -663q-5 -10 -17 -10h-31q-11 0 -16.5 8.5t-0.5 18.5zM118 404q-10 0 -10 9v201l-45 -7q-9 -2 -9 6l-4 24q0 6 5 11l72 52h40q9 0 9 -9v-278q0 -9 -9 -9h-49zM401 76q0 28 20.5 48.5t37.5 27.5v1
q-50 23 -50 70q0 37 30.5 60t76.5 23t77 -23t31 -60q0 -24 -16 -43t-35 -27v-1q22 -9 40.5 -28.5t18.5 -47.5q0 -37 -32 -61.5t-85 -24.5q-51 0 -82.5 24.5t-31.5 61.5zM477 217q0 -31 39 -37q40 6 40 37q0 14 -12 24.5t-29 10.5q-16 0 -27 -10.5t-11 -24.5zM471 80
q0 -16 13.5 -26t31.5 -10q19 0 32.5 10t13.5 26q0 15 -12 27t-34 15q-20 -3 -32.5 -15t-12.5 -27z" />
    <glyph glyph-name="threeeighths" unicode="&#x215c;" horiz-adv-x="705" 
d="M153 394q-62 0 -99 37q-8 6 0 14l21 25q7 7 15 0l3 -2l6 -4t9 -5t11.5 -5t13 -3.5t14.5 -1.5q22 0 36.5 10.5t14.5 27.5q0 18 -15.5 29.5t-44.5 11.5h-30q-13 0 -13 11v28q0 12 13 12h30q25 0 39 10.5t14 26.5q0 17 -13.5 27.5t-32.5 10.5q-26 0 -48 -20q-7 -6 -14 1
l-22 24q-9 9 1 15q35 36 91 36q46 0 76 -22.5t30 -60.5q0 -24 -15.5 -43t-35.5 -27v-2q22 -9 41 -28.5t19 -46.5q0 -39 -32.5 -62.5t-82.5 -23.5zM145 27l343 663q7 10 17 10h33q11 0 16.5 -8.5t0.5 -18.5l-345 -663q-5 -10 -17 -10h-31q-11 0 -16.5 8.5t-0.5 18.5zM436 76
q0 28 20.5 48.5t37.5 27.5v1q-50 23 -50 70q0 37 30.5 60t76.5 23t77 -23t31 -60q0 -24 -16 -43t-35 -27v-1q22 -9 40.5 -28.5t18.5 -47.5q0 -37 -32 -61.5t-85 -24.5q-51 0 -82.5 24.5t-31.5 61.5zM512 217q0 -31 39 -37q40 6 40 37q0 14 -12 24.5t-29 10.5
q-16 0 -27 -10.5t-11 -24.5zM506 80q0 -16 13.5 -26t31.5 -10q19 0 32.5 10t13.5 26q0 15 -12 27t-34 15q-20 -3 -32.5 -15t-12.5 -27z" />
    <glyph glyph-name="fiveeighths" unicode="&#x215d;" horiz-adv-x="705" 
d="M146 27l343 663q7 10 17 10h33q11 0 16.5 -8.5t0.5 -18.5l-345 -663q-5 -10 -17 -10h-31q-11 0 -16.5 8.5t-0.5 18.5zM153 394q-62 0 -97 38q-7 8 -1 15l24 26q7 7 14 1q24 -24 62 -24q23 0 39 14t16 34t-15 32.5t-42 12.5h-76q-15 0 -15 16v132q0 9 9 9h158q9 0 9 -9
v-36q0 -8 -9 -8h-110v-50h42q54 0 84 -26.5t30 -71.5t-34.5 -75t-87.5 -30zM437 76q0 28 20.5 48.5t37.5 27.5v1q-50 23 -50 70q0 37 30.5 60t76.5 23t77 -23t31 -60q0 -24 -16 -43t-35 -27v-1q22 -9 40.5 -28.5t18.5 -47.5q0 -37 -32 -61.5t-85 -24.5q-51 0 -82.5 24.5
t-31.5 61.5zM513 217q0 -31 39 -37q40 6 40 37q0 14 -12 24.5t-29 10.5q-16 0 -27 -10.5t-11 -24.5zM507 80q0 -16 13.5 -26t31.5 -10q19 0 32.5 10t13.5 26q0 15 -12 27t-34 15q-20 -3 -32.5 -15t-12.5 -27z" />
    <glyph glyph-name="seveneighths" unicode="&#x215e;" horiz-adv-x="705" 
d="M145 27l343 663q7 10 17 10h33q11 0 16.5 -8.5t0.5 -18.5l-345 -663q-5 -10 -17 -10h-31q-11 0 -16.5 8.5t-0.5 18.5zM105 404q-10 0 -10 7v7l124 227h-126q-9 0 -9 9v37q0 9 9 9h200q9 0 9 -9v-13l-137 -265q-5 -9 -14 -9h-46zM436 76q0 28 20.5 48.5t37.5 27.5v1
q-50 23 -50 70q0 37 30.5 60t76.5 23t77 -23t31 -60q0 -24 -16 -43t-35 -27v-1q22 -9 40.5 -28.5t18.5 -47.5q0 -37 -32 -61.5t-85 -24.5q-51 0 -82.5 24.5t-31.5 61.5zM512 217q0 -31 39 -37q40 6 40 37q0 14 -12 24.5t-29 10.5q-16 0 -27 -10.5t-11 -24.5zM506 80
q0 -16 13.5 -26t31.5 -10q19 0 32.5 10t13.5 26q0 15 -12 27t-34 15q-20 -3 -32.5 -15t-12.5 -27z" />
    <glyph glyph-name="partialdiff" unicode="&#x2202;" horiz-adv-x="570" 
d="M55 219q0 99 62.5 158t146.5 59q74 0 133 -37q-12 43 -44 83.5t-71 68t-70.5 45t-52.5 24.5q-27 8 -18 29l17 41q7 18 25 12q35 -13 70.5 -31t85 -56t86 -82.5t63 -114t26.5 -148.5q0 -122 -60.5 -201t-175.5 -79q-91 0 -157 67.5t-66 161.5zM147 218q0 -57 38.5 -97.5
t93.5 -40.5q75 0 110 62.5t28 135.5q-7 20 -46 48t-91 28q-55 0 -94 -40t-39 -96z" />
    <glyph glyph-name="Delta" unicode="&#x2206;" horiz-adv-x="694" 
d="M28 41l301 662q5 9 15 9h6q10 0 15 -9l300 -664q7 -13 3 -26t-22 -13h-596q-41 0 -22 41zM162 95l369 1l-184 419h-2z" />
    <glyph glyph-name="product" unicode="&#x220f;" horiz-adv-x="671" 
d="M49 16v668q0 6 5 11t11 5h541q7 0 11.5 -5t4.5 -11v-668q0 -6 -4.5 -11t-11.5 -5h-72q-7 0 -12 5t-5 11v587h-364v-587q0 -16 -16 -16h-72q-6 0 -11 5t-5 11z" />
    <glyph glyph-name="summation" unicode="&#x2211;" horiz-adv-x="538" 
d="M49 16v30l295 309l-295 303v26q0 6 4.5 11t11.5 5h408q7 0 11.5 -5t4.5 -11v-65q0 -16 -16 -16h-254l205 -195q16 -16 16 -31v-41q0 -13 -16 -29l-205 -210h254q7 0 11.5 -5t4.5 -12v-64q0 -6 -4.5 -11t-11.5 -5h-408q-7 0 -11.5 5t-4.5 11z" />
    <glyph glyph-name="minus" unicode="&#x2212;" horiz-adv-x="525" 
d="M69 307q-7 0 -13 5.5t-6 13.5v42q0 8 6 13.5t13 5.5h387q7 0 12.5 -5.5t5.5 -13.5v-42q0 -8 -5.5 -13.5t-12.5 -5.5h-387z" />
    <glyph glyph-name="uni2215" unicode="&#x2215;" horiz-adv-x="136" 
d="M-62 10q-5 -10 -17 -10h-31q-11 0 -16.5 8.5t-0.5 18.5l343 663q7 10 17 10h33q11 0 16.5 -8.5t0.5 -18.5z" />
    <glyph glyph-name="uni2219" unicode="&#x2219;" horiz-adv-x="371" 
d="M185 245q-30 0 -51.5 22t-21.5 51q0 31 21.5 53t51.5 22q31 0 52.5 -22t21.5 -53q0 -30 -21.5 -51.5t-52.5 -21.5z" />
    <glyph glyph-name="radical" unicode="&#x221a;" horiz-adv-x="677" 
d="M221 0l-171 380q-4 8 -0.5 14t12.5 6h72q12 0 14 -9l90 -209h4l227 508q4 10 15 10h168q16 0 16 -16v-54q0 -16 -16 -16h-114l-281 -614q-4 -10 -14 -10h-8q-10 0 -14 10z" />
    <glyph glyph-name="infinity" unicode="&#x221e;" horiz-adv-x="600" 
d="M189 157q-58 0 -98.5 40.5t-40.5 98.5t40.5 99t98.5 41q67 0 110 -62q44 62 112 62q57 0 98 -41t41 -99t-41 -98.5t-98 -40.5q-68 0 -112 61q-42 -61 -110 -61zM340 296q0 -28 20 -48t48 -20t48 20t20 48t-20 48t-48 20t-48 -20t-20 -48zM192 228q28 0 48 20t20 48
t-20 48t-48 20q-29 0 -49 -20t-20 -48t20 -48t49 -20z" />
    <glyph glyph-name="integral" unicode="&#x222b;" horiz-adv-x="393" 
d="M130 -124v648q0 89 49 137.5t124 48.5q63 0 111 -40q11 -11 4 -24l-27 -44q-9 -14 -25 -3q-30 23 -63 23t-54.5 -24.5t-21.5 -73.5v-649q0 -89 -48.5 -137t-124.5 -48q-66 0 -111 40q-11 11 -4 23l27 44q10 15 25 3q30 -23 63 -23t54.5 24.5t21.5 74.5z" />
    <glyph glyph-name="approxequal" unicode="&#x2248;" horiz-adv-x="450" 
d="M64 321l-29 24q-11 10 -3 21q33 50 69 69q25 14 50 14q36 0 79 -33q3 -2 12 -9t14.5 -10.5t14 -7t16.5 -3.5q21 0 36 17.5t24.5 29.5t22.5 3l29 -25q9 -9 1 -21l-2 -4q-2 -3 -7.5 -10.5t-12.5 -15.5t-17 -17t-21 -16t-25 -11.5t-29 -4.5q-33 0 -73 31t-62 31
q-18 0 -32.5 -11t-21.5 -23t-16.5 -19t-16.5 1zM72 130l-29 24q-11 11 -3 22q11 23 40 48q38 34 79 34q33 0 79 -33q2 -1 9 -7t11 -8.5t11 -6.5t13 -5.5t13 -1.5q17 0 30 11t19 22t15 17.5t18 -1.5l30 -24q9 -9 1 -21l-1 -2q-1 -2 -4.5 -7t-7.5 -10.5t-10.5 -13t-13 -13.5
t-15.5 -12.5t-18.5 -11t-20.5 -7.5t-23 -3q-33 0 -73 31t-62 31q-18 0 -32.5 -11t-21.5 -23t-16.5 -19t-16.5 1z" />
    <glyph glyph-name="notequal" unicode="&#x2260;" horiz-adv-x="450" 
d="M122 54q-17 8 -10 24l26 55h-69q-8 0 -13.5 5.5t-5.5 13.5v44q0 8 5.5 13.5t13.5 5.5h107l60 129h-167q-8 0 -13.5 5.5t-5.5 13.5v43q0 8 5.5 13.5t13.5 5.5h205l35 76q7 17 25 9l9 -5q8 -3 10.5 -10t-1.5 -14l-26 -56h55q8 0 13.5 -5.5t5.5 -13.5v-43q0 -8 -5.5 -13.5
t-13.5 -5.5h-93l-59 -129h152q8 0 13.5 -5.5t5.5 -13.5v-44q0 -8 -5.5 -13.5t-13.5 -5.5h-190l-35 -75q-7 -17 -25 -9z" />
    <glyph glyph-name="lessequal" unicode="&#x2264;" horiz-adv-x="453" 
d="M25 383q-10 4 -10 17v8q0 10 10 16l393 190q8 5 14.5 1t6.5 -14v-58q0 -10 -8 -15l-276 -123l276 -121q8 -5 8 -15v-58q0 -10 -6.5 -14t-14.5 1zM34 52q-8 0 -13.5 6t-5.5 13v42q0 7 5.5 13t13.5 6h387q7 0 12.5 -5.5t5.5 -13.5v-42q0 -8 -5.5 -13.5t-12.5 -5.5h-387z
" />
    <glyph glyph-name="greaterequal" unicode="&#x2265;" horiz-adv-x="453" 
d="M36 198q-8 -5 -14.5 -1t-6.5 14v58q0 10 8 15l276 121l-276 123q-8 5 -8 15v58q0 10 6.5 14t14.5 -1l393 -190q10 -6 10 -16v-8q0 -13 -10 -17zM33 52q-7 0 -12.5 5.5t-5.5 13.5v42q0 8 5.5 13.5t12.5 5.5h387q8 0 13.5 -6t5.5 -13v-42q0 -7 -5.5 -13t-13.5 -6h-387z" />
    <glyph glyph-name="lozenge" unicode="&#x25ca;" horiz-adv-x="694" 
d="M99 309q-17 22 -17 48q0 22 20 48l228 298q7 9 15 9h6q8 0 15 -9l228 -297q20 -28 20 -50t-20 -51l-228 -296q-7 -9 -15 -9h-6q-8 0 -15 9zM347 129h2l166 227l-166 227h-2l-167 -227z" />
    <glyph glyph-name="uniF8FF" unicode="&#xf8ff;" horiz-adv-x="599" 
d="M50 30v640q0 30 30 30h439q30 0 30 -30v-640q0 -30 -30 -30h-439q-30 0 -30 30zM262 314q0 -12 14 -12h36q15 0 15 13v26q0 16 16.5 32t36 28.5t36 36.5t16.5 53q0 48 -35.5 79.5t-89.5 31.5q-24 0 -46.5 -6.5t-37 -15t-25.5 -17.5t-16 -15l-5 -7q-8 -12 0 -18l22 -22
q9 -6 17 0q1 1 7.5 7t9.5 9t11.5 8.5t15.5 8.5t18 5.5t22 2.5q29 0 45 -15t16 -37q0 -21 -15.5 -39t-34 -30t-34 -32.5t-15.5 -45.5v-29zM245 156q0 -20 14.5 -34t33.5 -14q20 0 34.5 14t14.5 34t-14.5 34t-34.5 14q-19 0 -33.5 -14t-14.5 -34z" />
    <glyph glyph-name="CR" horiz-adv-x="0" 
 />
    <glyph glyph-name="grave.cap" horiz-adv-x="302" 
d="M225 774l-168 72q-14 7 -6 24l23 44q3 6 12.5 6.5t13.5 -3.5l157 -91q12 -6 6 -19l-14 -28q-6 -13 -24 -5z" />
    <glyph glyph-name="acute.cap" horiz-adv-x="302" 
d="M88 774q-18 -8 -24 5l-14 28q-6 12 6 19l157 91q4 4 13.5 3.5t12.5 -6.5l23 -44q10 -16 -6 -24z" />
    <glyph glyph-name="circumflex.cap" horiz-adv-x="373" 
d="M84 769q-14 -8 -23 3l-20 27q-7 10 6 19l125 98q11 9 24 0l125 -98q13 -9 6 -19l-20 -27q-9 -12 -23 -3l-100 65z" />
    <glyph glyph-name="caron.cap" horiz-adv-x="373" 
d="M172 768l-125 98q-13 9 -6 19l20 27q9 11 23 3l100 -65l100 65q14 9 23 -3l20 -27q7 -10 -6 -19l-125 -98q-13 -9 -24 0z" />
    <glyph glyph-name="caron.alt" horiz-adv-x="373" 
d="M184 710q30 0 52 -22.5t22 -75.5q0 -60 -27.5 -107t-59.5 -76q-14 -12 -23 -1l-15 14q-9 11 5 24q64 51 65 124q-9 -3 -22 -3q-25 0 -43.5 18t-18.5 43q0 26 19 44t46 18z" />
    <glyph glyph-name="tilde.cap" horiz-adv-x="380" 
d="M67 792l-23 15q-13 8 -6 23q42 84 98 84q25 0 45.5 -16t35.5 -32t28 -16q8 0 15 4.5t10.5 9.5t8.5 14t7 12q10 17 25 9q1 0 11.5 -7t14.5 -12q5 -9 -3 -27q-34 -75 -94 -75q-28 0 -61.5 32.5t-45.5 32.5q-24 0 -43 -41q-8 -18 -23 -10z" />
    <glyph glyph-name="dieresis.cap" horiz-adv-x="474" 
d="M351 782q-23 0 -39.5 17t-16.5 40t16.5 39.5t39.5 16.5t40 -16.5t17 -39.5t-17 -40t-40 -17zM122 782q-23 0 -39.5 17t-16.5 40t16.5 39.5t39.5 16.5t40 -16.5t17 -39.5t-17 -40t-40 -17z" />
    <glyph glyph-name="macron.cap" horiz-adv-x="414" 
d="M79 814q-8 0 -13.5 5t-5.5 13v28q0 19 19 19h256q19 0 19 -19v-28q0 -8 -5.5 -13t-13.5 -5h-256z" />
    <glyph glyph-name="breve.cap" horiz-adv-x="346" 
d="M173 768q-53 0 -91.5 33t-46.5 83q-2 9 2.5 15t13.5 6h29q14 0 18 -16q19 -58 75 -58q24 0 44 17t28 41q5 16 18 16h31q9 0 13.5 -6t2.5 -15q-8 -50 -46.5 -83t-90.5 -33z" />
    <glyph glyph-name="ring.cap" horiz-adv-x="290" 
d="M145 756q-47 0 -79 32t-32 79t32 79t79 32q46 0 78.5 -32.5t32.5 -78.5t-32.5 -78.5t-78.5 -32.5zM145 811q21 0 37 17t16 39t-15.5 37.5t-37.5 15.5q-23 0 -39.5 -15.5t-16.5 -37.5t16.5 -39t39.5 -17z" />
    <glyph glyph-name="hungarumlaut.cap" horiz-adv-x="392" 
d="M226 768q-11 0 -16 5.5t-3 13.5l43 141q6 19 19 19h57q14 0 19 -7.5t-1 -17.5l-78 -139q-9 -15 -18 -15h-22zM60 768q-10 0 -15.5 5.5t-3.5 13.5l43 141q6 19 19 19h57q14 0 19 -7.5t-1 -17.5l-78 -139q-8 -15 -18 -15h-22z" />
    <glyph glyph-name="dotaccent.cap" horiz-adv-x="219" 
d="M108 788q-26 0 -45 19t-19 46t19 45.5t45 18.5q27 0 46 -18.5t19 -45.5t-19 -46t-46 -19z" />
    <glyph glyph-name="cedilla.cap" horiz-adv-x="247" 
d="M54 0h60v-53q46 -6 73.5 -33.5t27.5 -69.5q0 -44 -30.5 -74t-74.5 -30q-46 0 -76 35q-13 15 1 27l17 14q13 9 22 -1q14 -15 36 -15q17 0 28 12t11 30q0 47 -78 56q-17 3 -17 19v83z" />
    <glyph glyph-name="ogonek.cap" horiz-adv-x="276" 
d="M109 12h58q-7 -5 -17 -14.5t-27 -38.5t-17 -57q0 -26 17.5 -43t44.5 -17q21 0 50 12q8 3 13.5 -1.5t5.5 -13.5v-28q0 -10 -14 -18q-28 -12 -68 -12q-50 0 -83 27t-33 79q0 35 17.5 66t35.5 45z" />
    <glyph glyph-name="commaaccent" horiz-adv-x="292" 
d="M142 -92q30 0 52 -22.5t22 -75.5q0 -60 -27.5 -107t-59.5 -76q-14 -12 -23 -1l-15 14q-9 11 5 24q64 51 65 124q-9 -3 -22 -3q-25 0 -43.5 18t-18.5 43q0 26 19 44t46 18z" />
    <glyph glyph-name="commaaccent.alt" horiz-adv-x="292" 
d="M142 -92q30 0 52 -22.5t22 -75.5q0 -60 -27.5 -107t-59.5 -76q-14 -12 -23 -1l-15 14q-9 11 5 24q64 51 65 124q-9 -3 -22 -3q-25 0 -43.5 18t-18.5 43q0 26 19 44t46 18z" />
    <glyph glyph-name="commaaccent.cap" horiz-adv-x="292" 
d="M142 -92q30 0 52 -22.5t22 -75.5q0 -60 -27.5 -107t-59.5 -76q-14 -12 -23 -1l-15 14q-9 11 5 24q64 51 65 124q-9 -3 -22 -3q-25 0 -43.5 18t-18.5 43q0 26 19 44t46 18z" />
    <glyph glyph-name="brokenbar.case" horiz-adv-x="333" 
d="M162 512q-8 0 -13.5 5.5t-5.5 12.5v331q0 8 5.5 13.5t13.5 5.5h10q8 0 13 -5.5t5 -13.5v-331q0 -7 -5.5 -12.5t-13.5 -5.5h-9zM143 169q0 8 5.5 13.5t13.5 5.5h10q8 0 13 -5.5t5 -13.5v-331q0 -7 -5.5 -12.5t-13.5 -5.5h-9q-8 0 -13.5 5.5t-5.5 12.5v331z" />
    <glyph glyph-name="zero.tf" horiz-adv-x="604" 
d="M302 -10q-118 0 -183 92.5t-65 257.5t65 257.5t183 92.5q117 0 182 -92.5t65 -257.5t-65 -257.5t-182 -92.5zM302 81q70 0 108 67.5t38 191.5q0 123 -38 190.5t-108 67.5t-108.5 -67.5t-38.5 -190.5q0 -124 38 -191.5t109 -67.5z" />
    <glyph glyph-name="one.tf" horiz-adv-x="604" 
d="M129 0q-8 0 -13.5 5t-5.5 13v43q0 19 19 19h140v447l-87 -44q-17 -8 -22 7l-12 35q-5 12 3 20l149 135h49q7 0 12.5 -5.5t5.5 -13.5v-581h110q19 0 19 -19v-43q0 -8 -5.5 -13t-13.5 -5h-348z" />
    <glyph glyph-name="two.tf" horiz-adv-x="604" 
d="M78 19v26q13 14 252 299q76 85 76 146q0 44 -31 76.5t-92 32.5q-65 0 -127 -67q-14 -14 -27 0l-34 34q-13 13 -1 26q3 4 9 10.5t25 23.5t40 30t54 23.5t66 10.5q103 0 161 -56.5t58 -139.5q0 -52 -23 -93.5t-73 -101.5q-88 -106 -182 -213h255q8 0 13.5 -6t5.5 -13v-48
q0 -7 -5.5 -13t-13.5 -6h-387q-8 0 -13.5 5.5t-5.5 13.5z" />
    <glyph glyph-name="three.tf" horiz-adv-x="604" 
d="M79 79q-11 13 1 24l39 36q15 12 27 -2q5 -7 21 -20t49 -27.5t66 -14.5q51 0 88 30t37 78q0 49 -41 83t-117 34h-56q-19 0 -19 21v43q0 21 20 21h56q68 0 104.5 30t36.5 77q0 48 -34 78.5t-80 30.5q-65 0 -116 -56q-11 -15 -26 -2l-37 33q-14 12 0 26q3 4 9 9.5t25 21
t39 27t50.5 21t61.5 9.5q89 0 149 -50.5t60 -132.5q0 -53 -32 -96t-71 -61v-3q44 -19 82.5 -63.5t38.5 -102.5q0 -83 -62 -137t-164 -54q-130 0 -205 89z" />
    <glyph glyph-name="four.tf" horiz-adv-x="604" 
d="M46 149q-8 0 -13.5 5.5t-5.5 13.5v60l370 457q6 6 15 6h37q8 0 13.5 -5.5t5.5 -13.5v-442h81q8 0 13.5 -5t5.5 -13v-42q0 -8 -5.5 -13.5t-13.5 -5.5h-81l1 -132q0 -7 -5.5 -13t-13.5 -6h-59q-7 0 -13 6t-6 13v130h-326zM135 232h241v294z" />
    <glyph glyph-name="five.tf" horiz-adv-x="604" 
d="M98 73q-17 19 -2 34q6 5 18 17t19 18q13 12 24 0q7 -8 22 -21t49 -28.5t68 -15.5q59 0 97.5 42.5t38.5 98.5q0 55 -36 91.5t-103 36.5h-153q-14 0 -22.5 11t-8.5 24v280q0 8 5.5 13.5t13.5 5.5h309q8 0 13.5 -5.5t5.5 -13.5v-49q0 -8 -5.5 -13.5t-13.5 -5.5h-238v-158
h101q109 0 169.5 -58t60.5 -158q0 -95 -68 -162t-169 -67q-126 0 -195 83z" />
    <glyph glyph-name="six.tf" horiz-adv-x="604" 
d="M77 270q0 79 26.5 148.5t63 114t86 82.5t85 56t70.5 31q18 6 25 -12l17 -41q9 -21 -18 -29q-21 -7 -52.5 -24.5t-70.5 -45t-71 -68t-44 -83.5q59 37 133 37q84 0 146.5 -59t62.5 -158q0 -94 -66 -161.5t-157 -67.5q-115 0 -175.5 79t-60.5 201zM312 80q55 0 93.5 40.5
t38.5 97.5q0 56 -39 96t-94 40q-52 0 -91 -28t-46 -48q-7 -73 28 -135.5t110 -62.5z" />
    <glyph glyph-name="seven.tf" horiz-adv-x="604" 
d="M133 19v11l270 562h-296q-7 0 -13 6t-6 13v50q0 7 6 13t13 6h409q8 0 13.5 -6t5.5 -13v-7l-294 -627q-7 -16 -14 -21.5t-25 -5.5h-46q-10 0 -16.5 5.5t-6.5 13.5z" />
    <glyph glyph-name="eight.tf" horiz-adv-x="604" 
d="M71 182q0 57 40.5 103t80.5 64v3q-39 20 -71 61t-32 94q0 81 60.5 132t151.5 51q93 0 153.5 -50.5t60.5 -132.5q0 -52 -32 -93t-71 -61v-4q44 -20 82.5 -64.5t38.5 -102.5q0 -84 -63 -138t-170 -54q-103 0 -166 54.5t-63 137.5zM302 396q56 8 84 36.5t28 70.5
q0 46 -32.5 75.5t-82.5 29.5q-46 0 -77.5 -30t-31.5 -75q0 -90 112 -107zM175 180q0 -48 37.5 -78.5t88.5 -30.5q55 0 91.5 30t36.5 79q0 42 -34.5 76.5t-92.5 43.5q-58 -9 -92.5 -43.5t-34.5 -76.5z" />
    <glyph glyph-name="nine.tf" horiz-adv-x="604" 
d="M154 37q-9 21 18 29q21 7 53 24.5t70.5 45t71 67.5t44.5 83q-65 -36 -133 -36q-85 0 -147.5 59t-62.5 158q0 94 66 161.5t158 67.5q114 0 174.5 -79t60.5 -202q0 -67 -17.5 -126t-48.5 -102.5t-64.5 -78t-74.5 -60t-69 -40t-57 -25.5q-18 -6 -25 12zM293 331q53 0 92 28
t45 48q5 45 -6.5 89t-46 77t-85.5 33q-54 0 -93 -41t-39 -97q0 -57 39 -97t94 -40z" />
    <glyph glyph-name="zero.denom" horiz-adv-x="352" 
d="M50 147q0 75 33 117t93 42t93 -42t33 -117q0 -74 -33 -115.5t-93 -41.5t-93 41.5t-33 115.5zM176 51q26 0 41 25t15 71t-15 72t-41 26t-40.5 -25.5t-14.5 -72.5q0 -96 55 -96z" />
    <glyph glyph-name="one.denom" horiz-adv-x="226" 
d="M108 9v201l-45 -7q-9 -2 -9 6l-4 24q0 6 5 11l72 52h40q9 0 9 -9v-278q0 -9 -9 -9h-49q-10 0 -10 9z" />
    <glyph glyph-name="two.denom" horiz-adv-x="314" 
d="M50 9v15l118 130q29 31 29 53q0 16 -13 28.5t-36 12.5q-28 0 -53 -25q-7 -7 -14 1l-21 26q-7 10 2 16q40 40 95 40q50 0 78.5 -25.5t28.5 -65.5t-43 -88l-67 -73h100q9 0 9 -10v-35q0 -9 -9 -9h-194q-10 0 -10 9z" />
    <glyph glyph-name="three.denom" horiz-adv-x="318" 
d="M54 27q-8 6 0 14l21 25q7 7 15 0l3 -2l6 -4t9 -5t11.5 -5t13 -3.5t14.5 -1.5q22 0 36.5 10.5t14.5 27.5q0 18 -15.5 29.5t-44.5 11.5h-30q-13 0 -13 11v28q0 12 13 12h30q25 0 39 10.5t14 26.5q0 17 -13.5 27.5t-32.5 10.5q-26 0 -48 -20q-7 -6 -14 1l-22 24q-9 9 1 15
q35 36 91 36q46 0 76 -22.5t30 -60.5q0 -24 -15.5 -43t-35.5 -27v-2q22 -9 41 -28.5t19 -46.5q0 -39 -32.5 -62.5t-82.5 -23.5q-62 0 -99 37z" />
    <glyph glyph-name="four.denom" horiz-adv-x="365" 
d="M59 58q-9 0 -9 8v40l167 187q3 3 8 3h31q10 0 10 -9v-178h40q9 0 9 -8v-34q0 -9 -9 -9h-40v-49q0 -9 -10 -9h-44q-10 0 -10 9v49h-143zM114 109h90v101z" />
    <glyph glyph-name="five.denom" horiz-adv-x="324" 
d="M56 28q-7 8 -1 15l24 26q7 7 14 1q24 -24 62 -24q23 0 39 14t16 34t-15 32.5t-42 12.5h-76q-15 0 -15 16v132q0 9 9 9h158q9 0 9 -9v-36q0 -8 -9 -8h-110v-50h42q54 0 84 -26.5t30 -71.5t-34.5 -75t-87.5 -30q-62 0 -97 38z" />
    <glyph glyph-name="six.denom" horiz-adv-x="329" 
d="M50 119q0 44 19.5 80.5t49 59t52.5 34t42 17.5q11 5 15 -7l12 -28q4 -11 -9 -15q-28 -8 -64 -30.5t-46 -53.5q23 15 59 15q40 0 69.5 -25.5t29.5 -71.5q0 -43 -33 -73.5t-79 -30.5q-55 0 -86 36.5t-31 92.5zM111 111q1 -23 16.5 -43t39.5 -20q21 0 35.5 13.5t14.5 33.5
t-15 34t-36 14q-18 0 -34 -10.5t-21 -21.5z" />
    <glyph glyph-name="seven.denom" horiz-adv-x="320" 
d="M63 7v7l124 227h-126q-9 0 -9 9v37q0 9 9 9h200q9 0 9 -9v-13l-137 -265q-5 -9 -14 -9h-46q-10 0 -10 7z" />
    <glyph glyph-name="eight.denom" horiz-adv-x="331" 
d="M50 76q0 28 20.5 48.5t37.5 27.5v1q-50 23 -50 70q0 37 30.5 60t76.5 23t77 -23t31 -60q0 -24 -16 -43t-35 -27v-1q22 -9 40.5 -28.5t18.5 -47.5q0 -37 -32 -61.5t-85 -24.5q-51 0 -82.5 24.5t-31.5 61.5zM165 180q40 6 40 37q0 14 -12 24.5t-29 10.5q-16 0 -27 -10.5
t-11 -24.5q0 -31 39 -37zM120 80q0 -16 13.5 -26t31.5 -10q19 0 32.5 10t13.5 26q0 15 -12 27t-34 15q-20 -3 -32.5 -15t-12.5 -27z" />
    <glyph glyph-name="nine.denom" horiz-adv-x="329" 
d="M89 19q-6 11 9 14q28 8 63.5 31t46.5 53q-30 -15 -60 -15q-40 0 -69 26t-29 72q0 43 33 73.5t79 30.5q55 0 86 -36.5t31 -92.5q0 -44 -19.5 -80.5t-49.5 -59t-52.5 -34.5t-42.5 -18q-10 -3 -15 7zM162 151q37 0 56 32q-1 23 -16.5 43t-40.5 20q-21 0 -35.5 -14t-14.5 -34
q0 -19 15 -33t36 -14z" />
    <glyph glyph-name="zero.num" horiz-adv-x="352" 
d="M176 395q-60 0 -93 41.5t-33 115.5q0 75 33 116.5t93 41.5t93 -41.5t33 -116.5q0 -74 -33 -115.5t-93 -41.5zM176 456q26 0 41 25t15 71t-15 71.5t-41 25.5q-55 0 -55 -97q0 -96 55 -96z" />
    <glyph glyph-name="one.num" horiz-adv-x="226" 
d="M118 404q-10 0 -10 9v201l-45 -7q-9 -2 -9 6l-4 24q0 6 5 11l72 52h40q9 0 9 -9v-278q0 -9 -9 -9h-49z" />
    <glyph glyph-name="two.num" horiz-adv-x="314" 
d="M60 404q-10 0 -10 9v15l118 130q29 31 29 53q0 16 -13 28.5t-36 12.5q-28 0 -53 -25q-7 -7 -14 1l-21 26q-7 10 2 16q40 40 95 40q50 0 78.5 -25.5t28.5 -65.5t-43 -88l-67 -73h100q9 0 9 -10v-35q0 -9 -9 -9h-194z" />
    <glyph glyph-name="three.num" horiz-adv-x="318" 
d="M153 394q-62 0 -99 37q-8 6 0 14l21 25q7 7 15 0l3 -2l6 -4t9 -5t11.5 -5t13 -3.5t14.5 -1.5q22 0 36.5 10.5t14.5 27.5q0 18 -15.5 29.5t-44.5 11.5h-30q-13 0 -13 11v28q0 12 13 12h30q25 0 39 10.5t14 26.5q0 17 -13.5 27.5t-32.5 10.5q-26 0 -48 -20q-7 -6 -14 1
l-22 24q-9 9 1 15q35 36 91 36q46 0 76 -22.5t30 -60.5q0 -24 -15.5 -43t-35.5 -27v-2q22 -9 41 -28.5t19 -46.5q0 -39 -32.5 -62.5t-82.5 -23.5z" />
    <glyph glyph-name="four.num" horiz-adv-x="365" 
d="M212 404q-10 0 -10 9v49h-143q-9 0 -9 8v40l167 187q3 3 8 3h31q10 0 10 -9v-178h40q9 0 9 -8v-34q0 -9 -9 -9h-40v-49q0 -9 -10 -9h-44zM114 513h90v101z" />
    <glyph glyph-name="five.num" horiz-adv-x="324" 
d="M153 394q-62 0 -97 38q-7 8 -1 15l24 26q7 7 14 1q24 -24 62 -24q23 0 39 14t16 34t-15 32.5t-42 12.5h-76q-15 0 -15 16v132q0 9 9 9h158q9 0 9 -9v-36q0 -8 -9 -8h-110v-50h42q54 0 84 -26.5t30 -71.5t-34.5 -75t-87.5 -30z" />
    <glyph glyph-name="six.num" horiz-adv-x="329" 
d="M167 394q-55 0 -86 36.5t-31 92.5q0 44 19.5 80.5t49 59t52.5 34t42 17.5q11 5 15 -7l12 -28q4 -11 -9 -15q-28 -8 -64 -30.5t-46 -53.5q23 15 59 15q40 0 69.5 -25.5t29.5 -71.5q0 -43 -33 -73.5t-79 -30.5zM167 452q21 0 35.5 13.5t14.5 33.5t-15 34t-36 14
q-18 0 -34 -10.5t-21 -21.5q1 -23 16.5 -43t39.5 -20z" />
    <glyph glyph-name="seven.num" horiz-adv-x="320" 
d="M73 404q-10 0 -10 7v7l124 227h-126q-9 0 -9 9v37q0 9 9 9h200q9 0 9 -9v-13l-137 -265q-5 -9 -14 -9h-46z" />
    <glyph glyph-name="eight.num" horiz-adv-x="331" 
d="M164 394q-51 0 -82.5 24.5t-31.5 61.5q0 28 20.5 48.5t37.5 27.5v1q-50 23 -50 70q0 37 30.5 60t76.5 23t77 -23t31 -60q0 -24 -16 -43t-35 -27v-1q22 -9 40.5 -28.5t18.5 -47.5q0 -37 -32 -61.5t-85 -24.5zM165 584q40 6 40 37q0 14 -12 24.5t-29 10.5q-16 0 -27 -10.5
t-11 -24.5q0 -31 39 -37zM165 448q19 0 32.5 10t13.5 26q0 15 -12 27t-34 15q-20 -3 -32.5 -15t-12.5 -27q0 -16 13.5 -26t31.5 -10z" />
    <glyph glyph-name="nine.num" horiz-adv-x="329" 
d="M115 387q-10 -3 -15 7l-11 29q-6 11 9 14q28 8 63.5 31t46.5 53q-30 -15 -60 -15q-40 0 -69 26t-29 72q0 43 33 73.5t79 30.5q55 0 86 -36.5t31 -92.5q0 -44 -19.5 -80.5t-49.5 -59t-52.5 -34.5t-42.5 -18zM162 555q37 0 56 32q-1 23 -16.5 43t-40.5 20q-21 0 -35.5 -14
t-14.5 -34q0 -19 15 -33t36 -14z" />
    <glyph glyph-name="a.alt" 
d="M425 381v-362q0 -7 -5.5 -13t-13.5 -6h-30q-13 0 -18 17l-8 29q-5 -6 -15.5 -15.5t-43.5 -25t-68 -15.5q-79 0 -133 61.5t-54 148.5t54.5 148.5t136.5 61.5q73 0 122 -49l10 25q5 14 19 14h28q8 0 13.5 -6t5.5 -13zM330 136v125q-6 17 -30.5 39.5t-61.5 22.5
q-50 0 -80 -36t-30 -88q0 -51 30 -87t77 -36q28 0 50.5 13.5t31.5 25t13 21.5z" />
    <glyph glyph-name="agrave.alt" 
d="M425 381v-362q0 -7 -5.5 -13t-13.5 -6h-30q-13 0 -18 17l-8 29q-5 -6 -15.5 -15.5t-43.5 -25t-68 -15.5q-79 0 -133 61.5t-54 148.5t54.5 148.5t136.5 61.5q73 0 122 -49l10 25q5 14 19 14h28q8 0 13.5 -6t5.5 -13zM330 136v125q-6 17 -30.5 39.5t-61.5 22.5
q-50 0 -80 -36t-30 -88q0 -51 30 -87t77 -36q28 0 50.5 13.5t31.5 25t13 21.5zM325 543l-168 72q-14 7 -6 24l23 44q3 6 12.5 6.5t13.5 -3.5l157 -91q12 -6 6 -19l-14 -29q-6 -13 -24 -4z" />
    <glyph glyph-name="aacute.alt" 
d="M425 381v-362q0 -7 -5.5 -13t-13.5 -6h-30q-13 0 -18 17l-8 29q-5 -6 -15.5 -15.5t-43.5 -25t-68 -15.5q-79 0 -133 61.5t-54 148.5t54.5 148.5t136.5 61.5q73 0 122 -49l10 25q5 14 19 14h28q8 0 13.5 -6t5.5 -13zM330 136v125q-6 17 -30.5 39.5t-61.5 22.5
q-50 0 -80 -36t-30 -88q0 -51 30 -87t77 -36q28 0 50.5 13.5t31.5 25t13 21.5zM172 543q-18 -9 -24 4l-14 29q-6 13 6 19l157 91q4 4 13.5 3.5t12.5 -6.5l23 -44q8 -17 -6 -24z" />
    <glyph glyph-name="acircumflex.alt" 
d="M425 381v-362q0 -7 -5.5 -13t-13.5 -6h-30q-13 0 -18 17l-8 29q-5 -6 -15.5 -15.5t-43.5 -25t-68 -15.5q-79 0 -133 61.5t-54 148.5t54.5 148.5t136.5 61.5q73 0 122 -49l10 25q5 14 19 14h28q8 0 13.5 -6t5.5 -13zM330 136v125q-6 17 -30.5 39.5t-61.5 22.5
q-50 0 -80 -36t-30 -88q0 -51 30 -87t77 -36q28 0 50.5 13.5t31.5 25t13 21.5zM120 542l-20 27q-7 10 6 19l125 98q11 9 24 0l125 -98q13 -9 6 -19l-20 -27q-9 -12 -23 -3l-100 65l-100 -65q-14 -8 -23 3z" />
    <glyph glyph-name="atilde.alt" 
d="M425 381v-362q0 -7 -5.5 -13t-13.5 -6h-30q-13 0 -18 17l-8 29q-5 -6 -15.5 -15.5t-43.5 -25t-68 -15.5q-79 0 -133 61.5t-54 148.5t54.5 148.5t136.5 61.5q73 0 122 -49l10 25q5 14 19 14h28q8 0 13.5 -6t5.5 -13zM330 136v125q-6 17 -30.5 39.5t-61.5 22.5
q-50 0 -80 -36t-30 -88q0 -51 30 -87t77 -36q28 0 50.5 13.5t31.5 25t13 21.5zM122 568l-23 15q-13 8 -6 23q42 84 98 84q25 0 45.5 -16t35.5 -32t28 -16q8 0 15 4.5t10.5 9.5t8.5 14t7 12q10 17 25 9q1 0 11.5 -7t14.5 -12q5 -9 -3 -27q-34 -75 -94 -75q-28 0 -61.5 32.5
t-45.5 32.5q-24 0 -43 -41q-8 -18 -23 -10z" />
    <glyph glyph-name="adieresis.alt" 
d="M425 381v-362q0 -7 -5.5 -13t-13.5 -6h-30q-13 0 -18 17l-8 29q-5 -6 -15.5 -15.5t-43.5 -25t-68 -15.5q-79 0 -133 61.5t-54 148.5t54.5 148.5t136.5 61.5q73 0 122 -49l10 25q5 14 19 14h28q8 0 13.5 -6t5.5 -13zM330 136v125q-6 17 -30.5 39.5t-61.5 22.5
q-50 0 -80 -36t-30 -88q0 -51 30 -87t77 -36q28 0 50.5 13.5t31.5 25t13 21.5zM346 567q-23 0 -39.5 16.5t-16.5 39.5q0 24 16.5 40.5t39.5 16.5q24 0 40.5 -16.5t16.5 -40.5q0 -23 -16.5 -39.5t-40.5 -16.5zM149 567q-23 0 -39.5 16.5t-16.5 39.5q0 24 16.5 40.5t39.5 16.5
q24 0 40.5 -16.5t16.5 -40.5q0 -23 -16.5 -39.5t-40.5 -16.5z" />
    <glyph glyph-name="amacron.alt" 
d="M425 381v-362q0 -7 -5.5 -13t-13.5 -6h-30q-13 0 -18 17l-8 29q-5 -6 -15.5 -15.5t-43.5 -25t-68 -15.5q-79 0 -133 61.5t-54 148.5t54.5 148.5t136.5 61.5q73 0 122 -49l10 25q5 14 19 14h28q8 0 13.5 -6t5.5 -13zM330 136v125q-6 17 -30.5 39.5t-61.5 22.5
q-50 0 -80 -36t-30 -88q0 -51 30 -87t77 -36q28 0 50.5 13.5t31.5 25t13 21.5zM120 576q-8 0 -13.5 5t-5.5 13v28q0 19 19 19h256q19 0 19 -19v-28q0 -8 -5.5 -13t-13.5 -5h-256z" />
    <glyph glyph-name="abreve.alt" 
d="M425 381v-362q0 -7 -5.5 -13t-13.5 -6h-30q-13 0 -18 17l-8 29q-5 -6 -15.5 -15.5t-43.5 -25t-68 -15.5q-79 0 -133 61.5t-54 148.5t54.5 148.5t136.5 61.5q73 0 122 -49l10 25q5 14 19 14h28q8 0 13.5 -6t5.5 -13zM330 136v125q-6 17 -30.5 39.5t-61.5 22.5
q-50 0 -80 -36t-30 -88q0 -51 30 -87t77 -36q28 0 50.5 13.5t31.5 25t13 21.5zM247 529q-53 0 -91.5 33t-46.5 83q-3 21 16 21h29q14 0 18 -15q19 -59 75 -59q24 0 44 17t28 42q5 15 18 15h31q20 0 16 -21q-8 -50 -46.5 -83t-90.5 -33z" />
    <glyph glyph-name="aring.alt" 
d="M425 381v-362q0 -7 -5.5 -13t-13.5 -6h-30q-13 0 -18 17l-8 29q-5 -6 -15.5 -15.5t-43.5 -25t-68 -15.5q-79 0 -133 61.5t-54 148.5t54.5 148.5t136.5 61.5q73 0 122 -49l10 25q5 14 19 14h28q8 0 13.5 -6t5.5 -13zM330 136v125q-6 17 -30.5 39.5t-61.5 22.5
q-50 0 -80 -36t-30 -88q0 -51 30 -87t77 -36q28 0 50.5 13.5t31.5 25t13 21.5zM244 488q-46 0 -78.5 32t-32.5 79t32.5 79t78.5 32t78.5 -32.5t32.5 -78.5t-32.5 -78.5t-78.5 -32.5zM244 543q21 0 37 17t16 39t-15.5 37.5t-37.5 15.5q-24 0 -40 -15.5t-16 -37.5t16 -39
t40 -17z" />
    <glyph glyph-name="aringacute.alt" 
d="M425 381v-362q0 -7 -5.5 -13t-13.5 -6h-30q-13 0 -18 17l-8 29q-5 -6 -15.5 -15.5t-43.5 -25t-68 -15.5q-79 0 -133 61.5t-54 148.5t54.5 148.5t136.5 61.5q73 0 122 -49l10 25q5 14 19 14h28q8 0 13.5 -6t5.5 -13zM330 136v125q-6 17 -30.5 39.5t-61.5 22.5
q-50 0 -80 -36t-30 -88q0 -51 30 -87t77 -36q28 0 50.5 13.5t31.5 25t13 21.5zM244 435q-46 0 -78.5 32.5t-32.5 78.5t32.5 78.5t78.5 32.5t78.5 -32.5t32.5 -78.5t-32.5 -78.5t-78.5 -32.5zM244 490q21 0 37 17t16 39t-15.5 37.5t-37.5 15.5q-24 0 -40 -15.5t-16 -37.5
t16 -39t40 -17zM175 660q-18 -9 -24 4l-14 29q-6 13 6 19l157 91q4 4 13.5 3.5t12.5 -6.5l23 -44q8 -17 -6 -24z" />
    <glyph glyph-name="aogonek.alt" 
d="M425 381v-362q0 -7 -5.5 -13t-13.5 -6h-1q-47 -47 -47 -98q0 -26 17.5 -43t44.5 -17q21 0 50 12q8 3 13.5 -1.5t5.5 -13.5v-28q0 -10 -14 -18q-28 -12 -68 -12q-50 0 -83 27t-33 79q0 72 69 124l-10 35q-5 -6 -15.5 -15.5t-43.5 -25t-68 -15.5q-79 0 -133 61.5t-54 148.5
t54.5 148.5t136.5 61.5q73 0 122 -49l10 25q5 14 19 14h28q8 0 13.5 -6t5.5 -13zM330 136v125q-6 17 -30.5 39.5t-61.5 22.5q-50 0 -80 -36t-30 -88q0 -51 30 -87t77 -36q28 0 50.5 13.5t31.5 25t13 21.5z" />
    <glyph glyph-name="parenleft.case" horiz-adv-x="341" 
d="M302 28q14 -4 11 -18l-2 -46q-1 -13 -19 -13q-47 3 -86.5 22.5t-76.5 62t-58 121.5t-21 188q0 88 14.5 157t37.5 111.5t55.5 71t65 40t69.5 13.5q17 2 19 -13l2 -46q1 -7 -2.5 -12t-8.5 -6q-82 -18 -118.5 -97t-36.5 -219q0 -141 36.5 -219.5t118.5 -97.5z" />
    <glyph glyph-name="parenright.case" horiz-adv-x="341" 
d="M28 11q-2 15 11 17q82 19 119 98t37 219t-37 219t-119 97q-13 2 -11 18l3 46q0 15 18 13q37 -2 69.5 -13.5t65 -40t55.5 -71t37.5 -111.5t14.5 -157q0 -109 -21 -188t-58 -121.5t-76.5 -62t-86.5 -22.5q-18 0 -18 13z" />
    <glyph glyph-name="hyphen.case" horiz-adv-x="390" 
d="M87 296q-8 0 -13.5 5t-5.5 13v43q0 19 19 19h216q19 0 19 -19v-43q0 -8 -5.5 -13t-13.5 -5h-216z" />
    <glyph glyph-name="bracketleft.case" horiz-adv-x="337" 
d="M163 -99h134q8 0 13.5 -5.5t5.5 -12.5v-44q0 -7 -6 -13t-13 -6h-206q-7 0 -13 6t-6 13v962q0 7 6 13t13 6h206q7 0 13 -6t6 -13v-44q0 -8 -5.5 -13.5t-13.5 -5.5h-134v-837z" />
    <glyph glyph-name="bracketright.case" horiz-adv-x="337" 
d="M40 -99h133v837h-133q-8 0 -13.5 5.5t-5.5 13.5v44q0 7 5.5 13t13.5 6h206q8 0 13.5 -6t5.5 -13v-962q0 -7 -5.5 -13t-13.5 -6h-206q-8 0 -13.5 6t-5.5 13v44q0 7 5.5 12.5t13.5 5.5z" />
    <glyph glyph-name="braceleft.case" horiz-adv-x="394" 
d="M105 66v142q0 30 -23 49.5t-46 23.5q-6 1 -10.5 6.5t-4.5 11.5v40q0 12 14 16q18 2 44 23t26 50v144q0 71 23.5 124t62 80t78 39.5t82.5 13.5q20 2 20 -17l2 -41q1 -6 -3.5 -11.5t-9.5 -6.5q-69 -12 -114 -59t-45 -122v-119q0 -32 -9.5 -58t-24.5 -41t-25.5 -22.5
t-21.5 -11.5v-3q81 -35 81 -131v-120q0 -75 44.5 -121.5t114.5 -58.5q15 -2 13 -18l-2 -41q0 -7 -6 -12.5t-14 -4.5q-43 1 -82.5 13.5t-78.5 39.5t-62 79.5t-23 123.5z" />
    <glyph glyph-name="bar.case" horiz-adv-x="189" 
d="M71 -162v1023q0 8 5.5 13.5t13.5 5.5h10q8 0 13 -5.5t5 -13.5v-1023q0 -7 -5.5 -12.5t-13.5 -5.5h-9q-8 0 -13.5 5.5t-5.5 12.5z" />
    <glyph glyph-name="braceright.case" horiz-adv-x="394" 
d="M193 66v120q0 96 81 131v3q-11 4 -21.5 11.5t-25.5 22.5t-24.5 41t-9.5 58v119q0 75 -45 122t-114 59q-5 1 -9.5 6.5t-3.5 11.5l2 41q0 19 20 17q43 -1 82.5 -13.5t78 -39.5t62 -80t23.5 -124v-144q0 -29 26 -50t44 -23q14 -4 14 -16v-40q0 -6 -4.5 -11.5t-10.5 -6.5
q-23 -4 -46 -23.5t-23 -49.5v-142q0 -71 -23 -123.5t-62 -79.5t-78.5 -39.5t-82.5 -13.5q-8 -1 -14 4.5t-6 12.5l-2 41q-2 16 13 18q70 12 114.5 58.5t44.5 121.5z" />
    <glyph glyph-name="guilsinglleft.case" horiz-adv-x="262" 
d="M139 159l-104 155q-8 11 0 24l109 148q7 12 18 12h35q13 0 17 -9.5t-2 -21.5l-71 -139l68 -147q6 -12 1.5 -21t-16.5 -9h-40q-9 0 -15 8z" />
    <glyph glyph-name="guilsinglright.case" horiz-adv-x="262" 
d="M67 151q-12 0 -16.5 9t1.5 21l68 147l-71 139q-6 12 -2 21.5t17 9.5h35q11 0 18 -12l109 -148q8 -13 0 -24l-104 -155q-6 -8 -15 -8h-40z" />
    <glyph glyph-name="guillemotleft.case" horiz-adv-x="443" 
d="M216 314q-8 11 0 24l109 148q7 12 18 12h35q13 0 17 -9.5t-2 -21.5l-71 -139l68 -147q6 -12 1.5 -21t-16.5 -9h-40q-9 0 -15 8zM139 159l-104 155q-8 11 0 24l109 148q7 12 18 12h35q13 0 17 -9.5t-2 -21.5l-71 -139l68 -147q6 -12 1.5 -21t-16.5 -9h-40q-9 0 -15 8z" />
    <glyph glyph-name="guillemotright.case" horiz-adv-x="443" 
d="M233 181l68 147l-71 139q-6 12 -2 21.5t17 9.5h35q11 0 18 -12l109 -148q8 -13 0 -24l-104 -155q-6 -8 -15 -8h-40q-12 0 -16.5 9t1.5 21zM67 151q-12 0 -16.5 9t1.5 21l68 147l-71 139q-6 12 -2 21.5t17 9.5h35q11 0 18 -12l109 -148q8 -13 0 -24l-104 -155
q-6 -8 -15 -8h-40z" />
    <glyph glyph-name="endash.case" horiz-adv-x="552" 
d="M85 306q-8 0 -13.5 5t-5.5 13v24q0 19 19 19h382q19 0 19 -19v-24q0 -8 -5.5 -13t-13.5 -5h-382z" />
    <glyph glyph-name="emdash.case" horiz-adv-x="772" 
d="M85 306q-8 0 -13.5 5t-5.5 13v24q0 19 19 19h602q19 0 19 -19v-24q0 -8 -5.5 -13t-13.5 -5h-602z" />
    <glyph glyph-name="bullet.case" horiz-adv-x="371" 
d="M183 197q-47 0 -82 34.5t-35 82.5q0 49 35 85t82 36q50 0 85.5 -35.5t35.5 -85.5q0 -48 -35.5 -82.5t-85.5 -34.5z" />
    <glyph glyph-name="periodcentered.case" horiz-adv-x="237" 
d="M118 275q-30 0 -51.5 22t-21.5 51q0 31 21.5 53t51.5 22q31 0 52.5 -22t21.5 -53q0 -30 -22 -51.5t-52 -21.5z" />
    </font>
</defs>
</svg>
